<?xml version="1.0" standalone="no"?>
<!DOCTYPE svg PUBLIC "-//W3C//DTD SVG 1.1//EN" "http://www.w3.org/Graphics/SVG/1.1/DTD/svg11.dtd" >
<svg xmlns="http://www.w3.org/2000/svg">
<metadata></metadata>
<defs>
<font id="goudysans_lt_btlight" horiz-adv-x="1024" >
<font-face units-per-em="2048" ascent="1556" descent="-492" />
<missing-glyph horiz-adv-x="530" />
<glyph horiz-adv-x="2048" />
<glyph horiz-adv-x="2048" />
<glyph unicode="&#xd;" horiz-adv-x="530" />
<glyph unicode=" "  horiz-adv-x="530" />
<glyph unicode="&#x09;" horiz-adv-x="530" />
<glyph unicode="&#xa0;" horiz-adv-x="530" />
<glyph unicode="!" horiz-adv-x="530" d="M166 76q0 40 29.5 70t70.5 30t70 -29t29 -71q0 -41 -29.5 -71t-69.5 -30t-70 30.5t-30 70.5zM186 1395l144 18l-13 -973l-116 -65z" />
<glyph unicode="&#x22;" horiz-adv-x="551" d="M100 881v553h86v-553h-86zM365 881v553h86v-553h-86z" />
<glyph unicode="#" horiz-adv-x="1575" d="M129 494l31 90h336l100 282h-360l28 90h365l176 498h110l-174 -498h271l176 498h110l-174 -498h322l-31 -90h-323l-101 -282h348l-30 -90h-351l-174 -494h-112l176 494h-270l-179 -494h-110l174 494h-334zM610 584h269l100 282h-270z" />
<glyph unicode="$" horiz-adv-x="1063" d="M170 135v98q57 -63 128.5 -95t156.5 -32h30v543q-170 84 -241.5 166.5t-71.5 192.5q0 127 83 206t230 91v125h103v-125q110 -13 165.5 -31.5t55.5 -42.5q0 -5 -3 -19q-1 -4 -1 -6l-25 -86q-35 32 -80.5 50t-111.5 24v-457q154 -82 228.5 -178t74.5 -213q0 -134 -80 -224 t-223 -118v-225l-103 -43v264q-179 6 -247 35.5t-68 99.5zM299 1014q0 -72 40.5 -122.5t145.5 -105.5v408q-91 -8 -138.5 -54t-47.5 -126zM588 113q75 16 123.5 82t48.5 149q0 74 -42.5 136t-129.5 114v-481z" />
<glyph unicode="%" horiz-adv-x="1602" d="M100 922q0 191 75.5 299t207.5 108q134 0 209.5 -107.5t75.5 -299.5q0 -191 -76 -299.5t-209 -108.5q-131 0 -207 109t-76 299zM225 922q0 -143 42 -223.5t116 -80.5t116 80t42 224t-41.5 223.5t-116.5 79.5q-74 0 -116 -80.5t-42 -222.5zM391 -45l692 1393h113 l-678 -1393h-127zM934 399q0 191 76 299.5t209 108.5t208.5 -107.5t75.5 -300.5q0 -190 -76 -298.5t-208 -108.5t-208.5 109.5t-76.5 297.5zM1061 399q0 -142 42 -222.5t116 -80.5t115.5 80t41.5 223q0 144 -41.5 223.5t-115.5 79.5t-116 -80t-42 -223z" />
<glyph unicode="&#x26;" horiz-adv-x="1427" d="M94 471q0 135 73 239.5t202 153.5q-74 31 -113 89.5t-39 138.5q0 150 116.5 248t301.5 98q78 0 138.5 -19.5t60.5 -40.5q-1 -12 -6 -27q-2 -5 -3 -8l-24 -75q-34 29 -79 43t-104 14q-122 0 -197 -61.5t-75 -161.5q0 -85 60.5 -134.5t162.5 -49.5q17 0 34.5 1.5t37.5 4.5 l-48 -109q-167 -2 -263.5 -94t-96.5 -250q0 -172 115.5 -277.5t306.5 -105.5q193 0 316 107.5t123 271.5q0 88 -45.5 134t-130.5 46q-27 0 -55.5 -8.5t-55.5 -24.5v76q0 36 14.5 48t55.5 12h335q63 0 98 5.5t68 18.5l-22 -80q-10 -32 -28.5 -43.5t-86.5 -11.5h-88 q33 -38 48.5 -79.5t15.5 -94.5q0 -210 -162 -350t-414 -140q-239 0 -393 141.5t-154 354.5z" />
<glyph unicode="'" horiz-adv-x="285" d="M100 881v553h86v-553h-86z" />
<glyph unicode="(" horiz-adv-x="631" d="M166 506q0 248 54 436.5t173 355.5q45 64 92.5 102t79.5 38q5 0 10.5 -3t16.5 -12l22 -22q-143 -105 -225 -341.5t-82 -553.5q0 -318 81.5 -554t225.5 -341l-22 -23q-8 -6 -14.5 -9t-12.5 -3q-26 0 -62 24.5t-75 69.5q-130 147 -196 358t-66 478z" />
<glyph unicode=")" horiz-adv-x="631" d="M16 -389q143 104 224.5 340.5t81.5 554.5t-81.5 554t-224.5 341l23 22q11 9 16.5 12t10.5 3q25 0 60 -24t77 -71q129 -144 195.5 -356.5t66.5 -480.5q0 -247 -54.5 -436.5t-172.5 -356.5q-46 -62 -93 -99.5t-79 -37.5q-6 0 -12.5 3t-14.5 9z" />
<glyph unicode="*" d="M152 1174q0 2 0.5 3.5t1.5 2.5l28 69q20 -23 82 -50t191 -66q-2 26 -6 73q-11 145 -11 158q0 39 14 55.5t48 16.5h71q-15 -30 -21.5 -76t-6.5 -150l1 -29t1 -59q127 72 171 90.5t70 18.5q22 0 36 -9.5t24 -31.5l24 -57q-45 -4 -106 -21t-188 -64l16 -15 q166 -160 166 -195q0 -14 -7 -26t-22 -24l-51 -38q-13 37 -59.5 103t-116.5 144q-17 -30 -46 -84q-88 -168 -124 -168q-7 0 -18 4t-17 9l-59 43q44 30 95 95t97 153q-21 4 -59 13q-219 49 -219 112z" />
<glyph unicode="+" horiz-adv-x="1706" d="M254 569v82h559v570h80v-570h559v-82h-559v-569h-80v569h-559z" />
<glyph unicode="," horiz-adv-x="530" d="M141 -190q58 41 89 87t36 99q-6 -1 -13 -1.5t-13 -0.5q-28 0 -45 19t-17 50q0 44 25 70.5t67 26.5t66 -34t24 -93q0 -98 -59.5 -162t-150.5 -64h-9v3z" />
<glyph unicode="-" horiz-adv-x="750" d="M170 492v112h408v-112h-408z" />
<glyph unicode="." horiz-adv-x="530" d="M172 70q0 37 28 64.5t66 27.5q39 0 65.5 -27t26.5 -65q0 -39 -27.5 -67t-64.5 -28t-65.5 29t-28.5 66z" />
<glyph unicode="/" horiz-adv-x="569" d="M-49 -190l551 1626h116l-552 -1626h-115z" />
<glyph unicode="0" horiz-adv-x="1063" d="M100 651q0 317 115 496.5t315 179.5q203 0 318 -179t115 -497q0 -316 -115.5 -496t-317.5 -180q-199 0 -314.5 180.5t-115.5 495.5zM238 653q0 -266 77 -414.5t215 -148.5q140 0 217.5 148t77.5 415q0 268 -77 414.5t-218 146.5q-139 0 -215.5 -146.5t-76.5 -414.5z" />
<glyph unicode="1" horiz-adv-x="1063" d="M434 1280l174 49q-4 -23 -6 -49.5t-2 -83.5v-1098q0 -24 5.5 -47.5t17.5 -50.5h-187q14 28 20.5 51.5t6.5 46.5v1051q0 42 -7 74t-22 57z" />
<glyph unicode="2" horiz-adv-x="1063" d="M88 0v4q345 420 497 660.5t152 363.5q0 89 -57 141t-156 52q-82 0 -169.5 -34t-164.5 -95l-28 49q-6 11 -8 19t-2 16q0 53 121 104t266 51q156 0 244.5 -73.5t88.5 -202.5q0 -145 -115.5 -351.5t-416.5 -584.5h373q76 0 115.5 6t76.5 20l-33 -92q-13 -37 -30 -49t-54 -12 q-38 0 -165 6t-215 6q-84 0 -164 -1t-156 -3z" />
<glyph unicode="3" horiz-adv-x="1063" d="M150 63q2 3 2 7l12 80q66 -34 129.5 -51t124.5 -17q149 0 240.5 87.5t91.5 229.5q0 141 -99 225.5t-301 114.5q157 53 234.5 124t77.5 163q0 91 -63.5 144t-172.5 53q-75 0 -138 -16t-110 -48v78q0 42 64.5 66t175.5 24q181 0 280 -78t99 -221q0 -98 -49.5 -170.5 t-139.5 -103.5q133 -35 207 -131.5t74 -233.5q0 -186 -125.5 -299t-333.5 -113q-126 0 -203 24t-77 62z" />
<glyph unicode="4" horiz-adv-x="1063" d="M29 274l680 1057h114v-954h68q13 0 30 3t46 11v-63q0 -40 -10.5 -50t-38.5 -10h-95v-364q0 -36 -10 -56t-33 -30l-125 -60q17 44 26 93t9 100v317h-659zM229 377h461l10 747z" />
<glyph unicode="5" horiz-adv-x="1063" d="M168 72v100q49 -38 109 -57t133 -19q155 0 251.5 95t96.5 247q0 177 -136.5 292.5t-347.5 115.5h-32l63 457h47q149 0 270 20.5t218 62.5l-4 -60q-6 -65 -81.5 -92.5t-332.5 -43.5l-31 -244q248 -40 377 -165.5t129 -327.5q0 -221 -128 -348.5t-351 -127.5 q-117 0 -183.5 25.5t-66.5 69.5z" />
<glyph unicode="6" horiz-adv-x="1063" d="M150 502q0 179 51 333.5t153 280.5q77 96 160 156.5t133 60.5q11 0 22 -1.5t21 -4.5l90 -20q-205 -112 -323.5 -255.5t-149.5 -320.5q47 59 110.5 90t135.5 31q162 0 262 -119.5t100 -314.5q0 -194 -106.5 -318.5t-276.5 -124.5t-276 144t-106 383zM285 440 q0 -155 70.5 -252.5t181.5 -97.5q108 0 174.5 90t66.5 238q0 150 -67 238.5t-179 88.5q-116 0 -181.5 -80.5t-65.5 -224.5z" />
<glyph unicode="7" horiz-adv-x="1063" d="M207 1151l14 98q6 35 15 44.5t32 9.5h76h629q-233 -354 -360.5 -683t-127.5 -573q0 -31 5 -61.5t14 -58.5l-125 34q-22 6 -30.5 27.5t-8.5 74.5q0 210 106.5 494t315.5 633h-342q-71 0 -124.5 -10t-88.5 -29z" />
<glyph unicode="8" horiz-adv-x="1063" d="M121 319q0 116 66 202.5t216 166.5q-130 65 -185.5 138.5t-55.5 179.5q0 146 100 233.5t268 87.5q160 0 255.5 -83t95.5 -222q0 -94 -62.5 -176.5t-181.5 -145.5q163 -83 234 -171.5t71 -204.5q0 -157 -113 -255t-299 -98q-183 0 -296 96.5t-113 251.5zM260 330 q0 -104 76.5 -173t193.5 -69q121 0 195 66t74 172q0 98 -73.5 173t-219.5 126q-117 -53 -181.5 -130.5t-64.5 -164.5zM295 1012q0 -78 50.5 -133.5t180.5 -116.5q108 45 163.5 113t55.5 153q0 86 -61.5 138.5t-165.5 52.5q-97 0 -160 -58.5t-63 -148.5z" />
<glyph unicode="9" horiz-adv-x="1063" d="M150 879q0 200 109 326t284 126q178 0 278.5 -137t100.5 -381q0 -187 -57.5 -368t-153.5 -302q-76 -93 -189.5 -151t-216.5 -58q-31 1 -43.5 8.5t-23.5 34.5l-31 78q20 -3 41 -4.5t41 -1.5q183 0 303.5 128.5t167.5 373.5q-43 -51 -105.5 -76.5t-140.5 -25.5 q-160 0 -262 120t-102 310zM287 889q0 -151 66.5 -238.5t178.5 -87.5q117 0 182.5 80.5t65.5 222.5q0 157 -70 254t-182 97q-108 0 -174.5 -90t-66.5 -238z" />
<glyph unicode=":" horiz-adv-x="530" d="M172 70q0 37 28 64.5t66 27.5q39 0 65.5 -27t26.5 -65q0 -39 -27.5 -67t-64.5 -28t-65.5 29t-28.5 66zM172 918q0 37 28 64.5t66 27.5q39 0 65.5 -27t26.5 -65t-27 -65.5t-65 -27.5q-37 0 -65.5 28t-28.5 65z" />
<glyph unicode=";" horiz-adv-x="530" d="M141 -190q58 41 89 87t36 99q-6 -1 -13 -1.5t-13 -0.5q-28 0 -45 19t-17 50q0 44 24.5 70.5t65.5 26.5t66.5 -33.5t25.5 -87.5q0 -105 -58.5 -168.5t-156.5 -63.5h-4v3zM172 918q0 37 28 64.5t66 27.5q39 0 65.5 -27t26.5 -65t-27 -65.5t-65 -27.5q-37 0 -65.5 28 t-28.5 65z" />
<glyph unicode="&#x3c;" horiz-adv-x="1706" d="M264 580v61l1178 483v-90l-1045 -424l1045 -424v-88z" />
<glyph unicode="=" horiz-adv-x="1706" d="M254 387v82h1198v-82h-1198zM254 752v79h1198v-79h-1198z" />
<glyph unicode="&#x3e;" horiz-adv-x="1706" d="M264 98v88l1045 424l-1045 424v90l1178 -483v-61z" />
<glyph unicode="?" horiz-adv-x="696" d="M94 1298q0 46 82 94t186 48q118 0 190.5 -70t72.5 -184q0 -128 -164 -354q-22 -30 -33 -46q-36 -51 -54 -112t-18 -135q0 -35 4 -69t10 -64l-126 65q-1 6 -1 16q-3 51 -3 74q0 75 17 139t52 117q22 34 66 94q121 166 121 260q0 67 -39.5 109.5t-102.5 42.5 q-53 0 -104.5 -30t-85.5 -83l-51 47q-8 6 -13.5 19t-5.5 22zM219 74q0 39 29 67.5t69 28.5t68.5 -28t28.5 -68t-29 -69.5t-68 -29.5q-38 0 -68 30t-30 69z" />
<glyph unicode="@" horiz-adv-x="2048" d="M121 522q0 162 50.5 307t147.5 265q144 175 345.5 265.5t449.5 90.5q160 0 304.5 -44t248.5 -124q128 -98 194 -226.5t66 -277.5q0 -169 -63 -308t-181 -232q-67 -54 -145.5 -82.5t-159.5 -28.5q-95 0 -143.5 36.5t-48.5 108.5q0 12 3 34q1 3 1 5q-49 -88 -125 -136 t-166 -48q-154 0 -233.5 83t-79.5 243q0 228 134.5 386t326.5 158q95 0 160 -43t96 -127l61 129h80l-137 -553q-10 -36 -15.5 -64.5t-5.5 -43.5q0 -44 30.5 -68t86.5 -24q48 0 100 19.5t103 56.5q101 74 162 207t61 282q0 273 -199.5 439.5t-525.5 166.5q-168 0 -310.5 -48 t-258.5 -144q-154 -128 -232 -297t-78 -375q0 -327 221.5 -522t591.5 -195q161 0 324 50.5t299 142.5l29 -45q-146 -110 -308.5 -165t-339.5 -55q-187 0 -343 46.5t-277 138.5q-152 115 -226.5 267.5t-74.5 348.5zM690 446q0 -115 57.5 -180t159.5 -65q111 0 196 72.5 t116 193.5l63 254q-22 99 -81.5 151t-151.5 52q-152 0 -255.5 -138t-103.5 -340z" />
<glyph unicode="A" horiz-adv-x="1366" d="M106 0q22 358 151.5 685t360.5 609q-7 0 -37 1t-53 1q-46 0 -96.5 -5.5t-109.5 -16.5q16 33 25.5 68.5t13.5 78.5q14 -4 32 -6t51 -2h31h416q150 -267 236.5 -629t101.5 -784h-189q13 25 19 55.5t6 79.5q0 122 -6.5 215t-20.5 162h-706q-33 -79 -51.5 -181t-18.5 -208 q0 -34 6 -64t19 -59h-181zM371 625h647q-27 173 -77.5 344t-121.5 325h-47q-131 -145 -233 -315t-168 -354z" />
<glyph unicode="B" horiz-adv-x="1057" d="M152 1407l135 36q11 -21 18 -45.5t11 -53.5q37 42 100 65t143 23q143 0 232.5 -95.5t89.5 -251.5q0 -110 -54.5 -188t-167.5 -127q137 -41 208 -127.5t71 -212.5q0 -193 -115 -311.5t-297 -118.5h-237h-60h-57q9 19 12.5 35t3.5 33v1202q0 31 -9.5 67.5t-26.5 69.5z M326 117q34 -5 68.5 -7.5t66.5 -3.5q155 0 247.5 83t92.5 223q0 139 -91.5 213.5t-260.5 74.5q-31 0 -62.5 -1.5t-60.5 -4.5v-577zM326 815q21 -3 45.5 -4.5t52.5 -1.5q147 0 234 72.5t87 195.5q0 114 -64 179t-177 65q-59 0 -107.5 -26t-70.5 -70v-410z" />
<glyph unicode="C" horiz-adv-x="1241" d="M94 713q0 334 176.5 528.5t479.5 194.5q140 0 262.5 -34.5t122.5 -66.5l-2 -5l-3 -9l-38 -125q-53 59 -143.5 93t-192.5 34q-253 0 -385.5 -157t-132.5 -455q0 -292 138.5 -456.5t383.5 -164.5q134 0 230 48.5t157 146.5v-154q0 -65 -112.5 -110.5t-280.5 -45.5 q-304 0 -482 198.5t-178 539.5z" />
<glyph unicode="D" horiz-adv-x="1284" d="M164 0q11 30 15.5 73.5t4.5 133.5v997q0 91 -4.5 135.5t-15.5 73.5q11 -1 22.5 -1.5t32.5 -0.5q19 0 48 1t40 1h262q304 0 462.5 -180t158.5 -524q0 -334 -167.5 -521.5t-461.5 -187.5h-272q-7 0 -31 1t-41 1q-20 0 -31.5 -0.5t-21.5 -1.5zM322 119q69 -6 114.5 -8 t79.5 -2q278 0 404.5 144t126.5 464q0 295 -132.5 441.5t-398.5 146.5q-22 0 -71 -3.5t-123 -9.5v-1173z" />
<glyph unicode="E" horiz-adv-x="891" d="M166 1415q6 0 15 -1t12 -1h114h318q84 0 106.5 -7.5t24.5 -29.5l6 -92q-20 13 -50.5 19t-109.5 6h-280v-510h264q42 0 61 3.5t37 12.5v-137q-23 8 -41.5 12t-34.5 4h-286v-594h342q57 0 91.5 8.5t69.5 26.5l-39 -117q-5 -15 -17.5 -20.5t-45.5 -5.5q-7 0 -157.5 4 t-291.5 4h-55h-51q8 13 12 29t4 41v1263q0 19 -4.5 39t-13.5 43z" />
<glyph unicode="F" horiz-adv-x="825" d="M166 1415q6 0 15 -1t12 -1h114h336q63 0 80 -10t18 -39l7 -90q-22 14 -55 20t-105 6h-266v-497h260q20 0 39.5 3.5t39.5 10.5l1 -141q-23 6 -43 9t-35 3h-262v-620q0 -25 3.5 -39.5t11.5 -28.5h-169q8 13 12 28t4 40v1263q0 22 -4.5 42.5t-13.5 41.5z" />
<glyph unicode="G" horiz-adv-x="1284" d="M92 719q0 341 178.5 530t499.5 189q130 0 247.5 -35.5t117.5 -63.5q0 -2 -3 -12q-1 -4 -2 -6l-38 -125q-53 59 -143.5 93t-192.5 34q-249 0 -384.5 -157t-135.5 -445q0 -297 139.5 -464t386.5 -167q73 0 137 13.5t113 39.5v387q0 69 -22 109l-1 2h2h178 q-10 -23 -15 -48.5t-5 -62.5v-458q-73 -45 -178 -71t-213 -26q-307 0 -486.5 200.5t-179.5 543.5z" />
<glyph unicode="H" horiz-adv-x="1309" d="M164 0q11 30 15.5 73.5t4.5 133.5v997q0 91 -4.5 135.5t-15.5 73.5h180q-12 -30 -17 -78t-5 -131v-393h663v393q0 93 -4.5 136.5t-15.5 72.5h179q-10 -28 -15 -72.5t-5 -136.5v-997q0 -91 5 -135t15 -72h-179q11 30 15.5 73.5t4.5 133.5v489h-663v-489q0 -82 5 -129 t17 -78h-180z" />
<glyph unicode="I" horiz-adv-x="512" d="M164 0q11 30 15.5 73.5t4.5 133.5v997q0 91 -4.5 135.5t-15.5 73.5h184q-11 -29 -15.5 -72.5t-4.5 -136.5v-997q0 -92 4.5 -135t15.5 -72h-184z" />
<glyph unicode="J" horiz-adv-x="541" d="M-86 -141q25 -49 65 -76t87 -27q73 0 108 50t35 155v1243q0 91 -5 135.5t-16 73.5h184q-10 -28 -15 -72.5t-5 -136.5v-1243q0 -164 -66.5 -241.5t-207.5 -77.5q-81 0 -122.5 22.5t-41.5 67.5v127z" />
<glyph unicode="K" horiz-adv-x="1165" d="M164 0q11 30 15.5 73.5t4.5 133.5v997q0 91 -4.5 135.5t-15.5 73.5h180q-12 -32 -17 -79.5t-5 -129.5l-3 -532l650 717q2 2 7 8q20 22 36 22q7 0 13 -3.5t11 -10.5l72 -82q-41 -30 -74 -59t-57 -56l-434 -452l342 -387q24 -28 68 -78q179 -206 257 -234l-44 -33 q-65 -49 -81 -49q-31 0 -170 160q-42 50 -67 78l-391 442l-138 -135l3 -313q0 -81 5 -128t17 -79h-180z" />
<glyph unicode="L" horiz-adv-x="872" d="M166 1413h176q-9 -23 -13.5 -43.5t-4.5 -40.5v-1216h344q41 0 78 8t77 26l-37 -133q-4 -14 -18 -20t-43 -6q-14 0 -67 2q-203 10 -384 10h-106q8 17 12 35.5t4 40.5v1253q0 19 -4.5 40.5t-13.5 43.5z" />
<glyph unicode="M" horiz-adv-x="1612" d="M164 0q11 30 15.5 73.5t4.5 133.5v997q0 91 -4.5 135.5t-15.5 73.5h180l471 -1177l469 1177h164q-11 -28 -16 -72.5t-5 -136.5v-997q0 -91 5 -135t15 -72h-179q19 52 22 189v18l21 983l-477 -1215h-50l-479 1209l17 -977v-19q3 -140 22 -188h-180z" />
<glyph unicode="N" horiz-adv-x="1446" d="M145 1413h177l780 -1204v995q0 83 -5.5 131t-17.5 78h183q-12 -30 -17.5 -78t-5.5 -131v-1079q0 -32 3 -63t9 -62h-149l-780 1202v-995q0 -82 5 -129t17 -78h-180q11 30 15.5 73.5t4.5 133.5v997q0 112 -8.5 150t-30.5 59z" />
<glyph unicode="O" horiz-adv-x="1489" d="M94 707q0 342 172 535.5t477 193.5q306 0 479 -193.5t173 -535.5q0 -343 -173 -537.5t-479 -194.5q-305 0 -477 194.5t-172 537.5zM231 707q0 -293 135 -455t377 -162q243 0 377.5 162t134.5 455q0 292 -134.5 454t-377.5 162q-242 0 -377 -162t-135 -454z" />
<glyph unicode="P" horiz-adv-x="1034" d="M164 0q11 30 15.5 73.5t4.5 133.5v999q0 86 -4.5 133.5t-15.5 73.5q24 -1 64 -2q59 -2 75 -2q34 0 96.5 2t89.5 2q221 0 334 -102t113 -301q0 -203 -131 -319t-363 -116q-26 0 -56.5 2t-63.5 5v-375q0 -82 5 -129t17 -78h-180zM322 694q18 -2 38.5 -3t57.5 -1 q183 0 279 81.5t96 236.5q0 141 -87 218t-247 77q-17 0 -53 -2t-84 -5v-602z" />
<glyph unicode="Q" horiz-adv-x="1489" d="M94 707q0 342 172 535.5t477 193.5q306 0 479 -193.5t173 -535.5q0 -234 -86.5 -408t-239.5 -248q154 -14 259.5 -65.5t105.5 -106.5q-1 -9 -10 -31q-3 -8 -5 -12l-57 -133q-37 146 -149.5 211.5t-331.5 65.5q-24 0 -70.5 -2.5t-67.5 -2.5q-305 0 -477 194.5t-172 537.5z M231 711q0 -293 135 -455t377 -162q243 0 377.5 162t134.5 455q0 292 -134.5 454t-377.5 162q-242 0 -377 -162t-135 -454z" />
<glyph unicode="R" horiz-adv-x="1151" d="M164 0q11 30 15.5 73.5t4.5 133.5v999q0 86 -4.5 133.5t-15.5 73.5h55h78h192q220 0 336.5 -98t116.5 -283q0 -120 -53.5 -216.5t-153.5 -158.5l234 -426q47 -85 82.5 -128t78.5 -72q-39 -12 -87 -34t-58 -22q-22 0 -44 41l-1 2l-324 600q-40 -11 -100 -16.5t-147 -5.5 h-47v-389q0 -82 5 -129t17 -78h-180zM322 713q30 0 64 -2h9q201 0 306.5 77.5t105.5 225.5q0 147 -81 216.5t-251 69.5q-32 0 -71 -2t-82 -6v-579z" />
<glyph unicode="S" horiz-adv-x="920" d="M84 115v137q55 -77 134 -117.5t173 -40.5q129 0 209 74t80 190q0 150 -256 331q-63 44 -96 69q-135 99 -184.5 177t-49.5 177q0 139 107.5 231.5t273.5 92.5q109 0 191 -28t82 -58q-1 -10 -3 -21t-10 -37l-18 -55q-58 43 -117 63.5t-123 20.5q-111 0 -177.5 -55 t-66.5 -146q0 -131 309 -346l15 -10q155 -107 208.5 -189t53.5 -190q0 -182 -114 -295t-302 -113q-132 0 -225.5 41t-93.5 97z" />
<glyph unicode="T" horiz-adv-x="920" d="M-70 1266l39 114q6 18 18 25.5t44 7.5h782q45 0 91.5 5.5t90.5 15.5l-22 -88q-7 -23 -20.5 -35.5t-30.5 -12.5h-387v-1091q0 -82 5 -129t17 -78h-186q11 30 15.5 73.5t4.5 133.5v1091h-264q-50 0 -100 -8t-97 -24z" />
<glyph unicode="U" horiz-adv-x="1413" d="M158 573q0 195 35.5 454.5t35.5 313.5q0 22 -1 38.5t-3 33.5h195q-57 -176 -89 -387.5t-32 -415.5q0 -277 94 -397.5t305 -120.5q114 0 217 33t172 92v987q0 84 -5 129t-17 80h186q-11 -37 -16.5 -85.5t-5.5 -123.5v-971q0 -66 13.5 -110t43.5 -82l-127 -66 q-20 22 -34 48.5t-23 57.5q-105 -54 -211.5 -80t-226.5 -26q-256 0 -381 148t-125 450z" />
<glyph unicode="V" horiz-adv-x="1305" d="M21 1413h196q-1 -4 -1.5 -9t-0.5 -15q0 -20 5 -40.5t18 -50.5l419 -1048l418 1046q9 24 14 46.5t5 35.5q0 14 -0.5 21t-1.5 14h204q-37 -41 -96 -181q-13 -31 -20 -48l-516 -1209h-35l-498 1209q-49 119 -71 163.5t-39 65.5z" />
<glyph unicode="W" horiz-adv-x="2030" d="M-2 1413h223q2 -50 19 -115.5t47 -136.5l381 -911h6l282 737l-96 227q-37 87 -66 133t-57 66h226q0 -42 17 -108t48 -144l361 -899h8l370 899q36 86 50 142t16 110h217q-25 -15 -56 -64.5t-67 -134.5l-526 -1239h-35l-344 854l-348 -854h-39l-514 1239q-34 81 -65.5 132 t-57.5 67z" />
<glyph unicode="X" horiz-adv-x="1124" d="M27 0q55 191 165 367.5t297 371.5l-297 460q-9 14 -27 41q-86 133 -124 173h203q17 -73 83 -182l7 -10l246 -390q151 148 246.5 297.5t123.5 284.5h156q-58 -168 -173.5 -337.5t-287.5 -336.5l316 -491q73 -113 115 -166t77 -82h-203q-20 57 -84 158q-7 11 -10 16 l-301 473q-163 -173 -258 -342.5t-104 -304.5h-166z" />
<glyph unicode="Y" horiz-adv-x="915" d="M-2 1413h207v-6q0 -37 14 -87t43 -114l232 -510l237 516q26 58 37.5 103.5t11.5 87.5v10h193q-34 -41 -115 -214q-18 -41 -29 -62l-419 -899q-56 -120 -85.5 -170.5t-50.5 -61.5q-5 -3 -14.5 -4.5t-32.5 -1.5h-59h-88q55 37 97 85t71 108l174 354l-303 649q-4 8 -12 26 q-63 138 -109 191z" />
<glyph unicode="Z" d="M2 0l795 1298h-480q-124 0 -187 -8.5t-105 -27.5l26 86q12 41 31 53t78 12h858l-788 -1286q41 -5 135 -7t276 -3q218 0 286 12.5t101 44.5l-39 -160q-4 -15 -16.5 -20.5t-44.5 -5.5q-11 0 -62 2q-300 10 -604 10h-168h-92z" />
<glyph unicode="[" horiz-adv-x="598" d="M213 -408v1821h328v-115h-195v-1593h195v-113h-328z" />
<glyph unicode="\" horiz-adv-x="569" d="M-51 1436h119l550 -1626h-114z" />
<glyph unicode="]" horiz-adv-x="598" d="M45 -295h197v1593h-197v115h330v-1821h-330v113z" />
<glyph unicode="^" horiz-adv-x="2048" d="M424 901l539 557h118l541 -557h-125l-473 469l-475 -469h-125z" />
<glyph unicode="_" d="M0 -403h1024v-80h-1024v80z" />
<glyph unicode="`" d="M285 1470h133l215 -350h-80z" />
<glyph unicode="a" horiz-adv-x="905" d="M115 221q0 157 120.5 240.5t368.5 97.5v197q0 77 -40.5 112t-129.5 35q-87 0 -154.5 -30t-119.5 -91l-23 72q0 2 -1 7q-3 12 -3 18q0 47 93.5 89t217.5 42q143 0 215 -63t72 -187v-557q0 -55 20 -95.5t60 -66.5l-84 -51q-10 -6 -18.5 -9t-14.5 -4q-17 0 -35 24.5 t-36 72.5q-53 -50 -114 -74.5t-132 -24.5q-121 0 -191.5 66t-70.5 180zM236 238q0 -71 45.5 -114.5t119.5 -43.5q92 0 147.5 52t55.5 138v187q-177 -6 -272.5 -63t-95.5 -156z" />
<glyph unicode="b" horiz-adv-x="1034" d="M135 1452l154 59v-575q53 38 108.5 56t120.5 18q193 0 306.5 -138.5t113.5 -377.5q0 -237 -108 -378t-287 -141q-65 0 -129 20.5t-125 59.5l-133 -59v1321q0 43 -5 75t-16 60zM289 209q41 -56 105 -89.5t130 -33.5q133 0 208 107.5t75 298.5q0 187 -80 298t-211 111 q-72 0 -128 -24.5t-99 -75.5v-592z" />
<glyph unicode="c" horiz-adv-x="858" d="M84 498q0 233 120.5 372.5t319.5 139.5q107 0 191 -42.5t84 -80.5q0 -8 -3.5 -17.5t-11.5 -25.5l-36 -70q-41 63 -104.5 96t-143.5 33q-131 0 -207 -110t-76 -304q0 -191 83.5 -300t227.5 -109q71 0 133 32t121 99v-117q0 -47 -81.5 -83t-198.5 -36q-186 0 -302 144.5 t-116 378.5z" />
<glyph unicode="d" horiz-adv-x="1020" d="M94 494q0 238 109.5 377t296.5 139q61 0 118 -18.5t111 -55.5v381q0 35 -6 69t-18 66l151 59v-1263q0 -71 18 -118t58 -79l-66 -53l-2 -2q-21 -14 -26 -14q-14 0 -34.5 26.5t-41.5 73.5q-65 -51 -139 -79t-146 -28q-173 0 -278 141.5t-105 377.5zM225 492 q0 -191 72.5 -298.5t200.5 -107.5q68 0 130 33t101 90v592q-46 51 -101 75.5t-122 24.5q-126 0 -203.5 -111.5t-77.5 -297.5z" />
<glyph unicode="e" horiz-adv-x="887" d="M84 522q0 211 110 349.5t273 138.5q134 0 223.5 -96.5t116.5 -270.5l-586 -209q11 -159 90 -254.5t199 -95.5q73 0 135.5 36t112.5 107l67 -77q-57 -85 -140.5 -130t-184.5 -45q-190 0 -303 148.5t-113 398.5zM217 530l440 160q-22 100 -71.5 152.5t-120.5 52.5 q-115 0 -181.5 -96t-66.5 -262v-7z" />
<glyph unicode="f" horiz-adv-x="512" d="M72 881l14 70q7 28 13.5 34t25.5 6h6h53v289q0 120 60.5 179t183.5 59q69 0 119.5 -25t50.5 -53q0 -11 -5 -26q-1 -2 -1 -3l-27 -65q-31 34 -64 50.5t-71 16.5q-61 0 -87 -29.5t-26 -101.5v-291h150l-16 -81q-5 -18 -13 -23.5t-37 -5.5h-12h-72v-654q0 -85 6 -137.5 t19 -89.5h-180q12 36 17 84.5t5 142.5v654h-112z" />
<glyph unicode="g" horiz-adv-x="967" d="M111 -158q0 69 40 120.5t125 92.5q-52 20 -79 58.5t-27 93.5q0 54 26.5 94.5t77.5 65.5q-70 50 -106.5 125t-36.5 170q0 160 89 255t241 95q22 0 61.5 -5.5t135.5 -21.5q35 -3 73.5 -4.5t81.5 -1.5q45 0 72.5 5.5t52.5 16.5l-16 -69q-8 -31 -22.5 -43t-41.5 -12 q-32 0 -62.5 2t-60.5 6q30 -44 44 -95t14 -114q0 -153 -72.5 -245.5t-196.5 -100.5q-11 -1 -31 -2q-206 -11 -206 -115q0 -51 31.5 -79t89.5 -28q10 0 59.5 3.5t89.5 3.5q185 0 282 -62t97 -180q0 -125 -119.5 -206t-312.5 -81q-186 0 -289.5 69t-103.5 189zM238 -152 q0 -75 75 -117t209 -42q126 0 207.5 49t81.5 125q0 71 -74.5 109t-214.5 38q-134 0 -209 -43t-75 -119zM258 662q0 -118 53 -180t154 -62q100 0 154.5 63t54.5 181q0 119 -54.5 181t-160.5 62q-98 0 -149.5 -63t-51.5 -182z" />
<glyph unicode="h" horiz-adv-x="1071" d="M145 1440l154 71v-608q68 53 151 80t177 27q138 0 210 -62t72 -182v-539q0 -85 6 -137.5t19 -89.5h-176q10 31 14 70.5t4 111.5v45v488q0 103 -37.5 144.5t-126.5 41.5q-88 0 -168 -31t-145 -90v-553q0 -95 5 -143.5t18 -83.5h-175q10 31 14.5 70.5t4.5 111.5v45v1071 q0 57 -5 88t-16 54z" />
<glyph unicode="i" horiz-adv-x="473" d="M145 938l158 72v-783q0 -85 6 -137.5t19 -89.5h-181q13 36 18 84.5t5 142.5v535q0 74 -5.5 111t-19.5 65zM158 1354q0 34 24.5 59t59.5 25t59.5 -24.5t24.5 -59.5q0 -36 -24.5 -60t-59.5 -24q-34 0 -59 25t-25 59z" />
<glyph unicode="j" horiz-adv-x="473" d="M-61 -244q25 -31 54 -46t64 -15q61 0 87 40.5t26 137.5v889q0 74 -5.5 111t-19.5 65l158 72v-1166q0 -135 -51 -195.5t-164 -60.5q-67 0 -99.5 16t-37.5 51zM158 1354q0 34 24.5 59t59.5 25t59.5 -24.5t24.5 -59.5q0 -36 -24.5 -60t-59.5 -24q-34 0 -59 25t-25 59z" />
<glyph unicode="k" horiz-adv-x="862" d="M146 1440l153 71v-870q0 -18 -2 -76q-2 -25 -2 -39q76 84 196 218q217 243 242 243q16 0 30 -18q3 -4 5 -6l41 -48q-18 -12 -32 -22.5t-23 -20.5l-328 -331l354 -418q23 -24 37.5 -37t28.5 -20l-68 -66q-8 -9 -13.5 -11.5t-12.5 -2.5q-12 0 -25 9.5t-27 27.5l-340 450 l-65 -65l4 -181q2 -107 7 -152t16 -75h-175q13 36 18 84.5t5 142.5v1039q0 72 -6 109.5t-18 64.5z" />
<glyph unicode="l" horiz-adv-x="473" d="M146 1440l157 71v-1284q0 -85 6 -137.5t19 -89.5h-181q13 36 18 84.5t5 142.5v1039q0 72 -6 109.5t-18 64.5z" />
<glyph unicode="m" horiz-adv-x="1565" d="M145 938l146 72l8 -107q70 52 142 78.5t145 26.5q80 0 142 -29.5t101 -85.5q81 56 161 85.5t151 29.5q128 0 196 -62.5t68 -179.5v-539q0 -85 6 -137.5t19 -89.5h-177q13 39 19 91t6 136v488q0 98 -36.5 141t-119.5 43q-59 0 -128 -30t-144 -89v-553q0 -85 6 -137.5 t18 -89.5h-174q13 36 18 84.5t5 142.5v488q0 98 -36.5 141t-119.5 43q-61 0 -133.5 -32t-134.5 -87v-553q0 -95 5 -143.5t18 -83.5h-175q13 36 18 84.5t5 142.5v535q0 74 -5.5 111t-19.5 65z" />
<glyph unicode="n" horiz-adv-x="1071" d="M145 938l146 72l8 -107q68 53 151 80t177 27q138 0 210 -62t72 -182v-539q0 -85 6 -137.5t19 -89.5h-176q13 39 18.5 91t5.5 136v488q0 101 -39.5 143.5t-130.5 42.5q-88 0 -168 -31t-145 -90v-553q0 -95 5 -143.5t18 -83.5h-175q13 36 18 84.5t5 142.5v535 q0 74 -5.5 111t-19.5 65z" />
<glyph unicode="o" horiz-adv-x="1042" d="M86 494q0 243 115 379.5t319 136.5q205 0 321.5 -137.5t116.5 -378.5q0 -243 -116.5 -381t-321.5 -138q-204 0 -319 138t-115 381zM217 494q0 -197 80.5 -305.5t224.5 -108.5q143 0 223 109.5t80 304.5q0 194 -80 302.5t-223 108.5q-145 0 -225 -108t-80 -303z" />
<glyph unicode="p" horiz-adv-x="1034" d="M135 938l146 72l8 -95q52 48 115 71.5t139 23.5q179 0 287 -140t108 -376q0 -234 -115.5 -376.5t-304.5 -142.5q-67 0 -125 19.5t-104 56.5v-213q0 -86 5.5 -137.5t18.5 -89.5h-176q10 29 14.5 69.5t4.5 112.5v45v957q0 57 -5 88.5t-16 54.5zM289 184q40 -48 95.5 -73 t121.5 -25q140 0 220.5 108.5t80.5 299.5q0 190 -75 297.5t-208 107.5q-68 0 -132 -32.5t-103 -88.5v-594z" />
<glyph unicode="q" horiz-adv-x="1034" d="M90 494q0 233 114 374.5t298 141.5q67 0 129 -21.5t112 -62.5l129 84v-1217q0 -73 4.5 -113t14.5 -69h-174q12 35 17 83.5t5 143.5v213q-49 -38 -105 -57t-122 -19q-193 0 -307.5 140t-114.5 379zM223 494q0 -191 80 -299.5t219 -108.5q66 0 121.5 25t95.5 73v598 q-39 60 -96.5 89.5t-132.5 29.5q-130 0 -208.5 -110.5t-78.5 -296.5z" />
<glyph unicode="r" horiz-adv-x="635" d="M145 938l146 72l8 -111q48 58 101 84.5t120 26.5q37 0 51.5 -9t14.5 -30q0 -6 -1.5 -13.5t-4.5 -14.5l-25 -78q-20 5 -36.5 7t-33.5 2q-50 0 -101 -23t-81 -60v-564q0 -85 6 -137.5t19 -89.5h-181q13 36 18 84.5t5 142.5v535q0 74 -5.5 111t-19.5 65z" />
<glyph unicode="s" horiz-adv-x="848" d="M111 94q0 7 5 18q2 5 3 7l45 102q30 -66 95.5 -104.5t148.5 -38.5q96 0 152 47t56 127q0 53 -32 91t-138 91q-187 96 -244 163t-57 159q0 109 87 180.5t223 71.5q100 0 179 -32t79 -63q0 -7 -7 -22q-2 -5 -4 -9l-38 -83q-39 52 -94 80t-119 28q-80 0 -130.5 -41 t-50.5 -104q0 -51 38.5 -94t125.5 -88q12 -6 35 -18q274 -139 274 -304q0 -128 -91.5 -204.5t-248.5 -76.5q-113 0 -202.5 39.5t-89.5 77.5z" />
<glyph unicode="t" horiz-adv-x="702" d="M86 877v122q24 -7 51 -10.5t58 -3.5v225l133 70v-295h159q28 0 55.5 3.5t55.5 10.5l-18 -75q-9 -30 -19 -38.5t-53 -8.5h-180v-621q0 -97 25 -136.5t83 -39.5q48 0 95 27.5t92 80.5l-13 -116q-4 -42 -60 -69.5t-132 -27.5q-123 0 -173 61t-50 218v623h-109z" />
<glyph unicode="u" horiz-adv-x="1071" d="M137 938l152 72v-740q0 -102 40 -143t136 -41q83 0 163 31.5t144 89.5v553q0 92 -5 140.5t-17 84.5h174q-12 -35 -17.5 -83t-5.5 -142v-578q0 -36 5.5 -72t17.5 -73l-136 -62l-14 103q-73 -51 -155.5 -77t-174.5 -26q-138 0 -210 63t-72 183v576q0 30 -6.5 66t-18.5 75z " />
<glyph unicode="v" horiz-adv-x="901" d="M-10 985h182q2 -38 8.5 -69.5t18.5 -57.5l268 -643l238 655q7 22 11.5 50t6.5 65h186q-27 -37 -47 -70.5t-33 -64.5l-356 -875h-41l-373 889q-8 22 -26 53t-43 68z" />
<glyph unicode="w" horiz-adv-x="1475" d="M25 985h177q2 -37 9 -69t18 -58l271 -647l192 481l-76 183q-13 33 -30 61.5t-35 48.5h186v-12q0 -25 5 -49.5t20 -67.5l260 -643l252 653q8 23 13 46t5 38q0 8 -2.5 19.5t-3.5 15.5h180q-18 -19 -34.5 -47t-36.5 -78l-355 -885h-36l-256 594l-242 -594h-39l-375 889 q-14 33 -30.5 63t-36.5 58z" />
<glyph unicode="x" horiz-adv-x="872" d="M18 0q49 127 134 248.5t221 257.5l-240 356q-27 41 -51 72.5t-41 50.5h192q12 -71 67 -151l3 -5l156 -239q134 167 188 254.5t58 140.5h139q-30 -93 -102 -201t-228 -282l213 -324l18 -27q65 -99 119 -151h-186q-1 24 -12 50t-41 73l-197 295q-101 -111 -164 -215.5 t-88 -202.5h-158z" />
<glyph unicode="y" horiz-adv-x="938" d="M12 985h192q3 -31 12 -68.5t26 -78.5l241 -617q126 229 194 417t83 347h139q-27 -175 -122 -403t-355 -707q-16 -30 -43 -80q-98 -184 -164 -184h-123q66 66 150 194t182 312l-287 655q-28 64 -58.5 116t-66.5 97z" />
<glyph unicode="z" horiz-adv-x="938" d="M39 0l634 886q-18 -3 -40.5 -5t-67.5 -2q-4 0 -63.5 2t-114.5 2q-130 0 -204.5 -6.5t-100.5 -20.5l20 86q7 27 15 35t24 8h25h723l-628 -880q20 3 43.5 4.5t68.5 1.5q21 0 88.5 -4.5t111.5 -4.5q145 0 217 10.5t115 34.5l-45 -100q-14 -32 -25.5 -39.5t-50.5 -7.5h-745z " />
<glyph unicode="{" d="M176 485v90q10 -1 20.5 -1.5t28.5 -0.5q139 0 196.5 64.5t57.5 222.5v240q0 227 68.5 302t257.5 75h43v-88h-37q-135 0 -182 -51.5t-47 -213.5v-241q0 -175 -43 -248t-152 -105q109 -32 152 -104t43 -248v-241q0 -162 46.5 -212.5t180.5 -50.5h39v-88h-43 q-189 0 -257.5 74.5t-68.5 300.5v240q0 158 -58 222t-200 64q-7 0 -21.5 -1t-23.5 -1z" />
<glyph unicode="|" d="M467 -483v2048h90v-2048h-90z" />
<glyph unicode="}" d="M176 -326h39q134 0 180.5 50.5t46.5 212.5v241q0 174 43.5 247t153.5 105q-110 32 -153.5 105t-43.5 248v241q0 162 -47 213.5t-182 51.5h-37v88h43q189 0 257.5 -75t68.5 -302v-240q0 -158 58 -222.5t200 -64.5q7 0 21.5 1t23.5 1v-90q-9 0 -23.5 1t-21.5 1 q-142 0 -200 -64t-58 -222v-240q0 -226 -68.5 -300.5t-257.5 -74.5h-43v88z" />
<glyph unicode="~" horiz-adv-x="1706" d="M178 481v92q105 74 201 110t186 36q100 0 271 -61q12 -5 19 -7q8 -3 27 -10q168 -61 261 -61q83 0 175 37.5t212 121.5v-92q-106 -74 -202 -110.5t-185 -36.5q-99 0 -266 61q-16 6 -22 8q-12 4 -33 12q-167 60 -257 60q-83 0 -175 -37.5t-212 -122.5z" />
<glyph unicode="&#xa1;" horiz-adv-x="530" d="M166 1337q0 40 30 69.5t70 29.5q41 0 70 -29t29 -70q0 -42 -29 -71t-70 -29t-70.5 30t-29.5 70zM186 -6l15 1020l116 -66l13 -973z" />
<glyph unicode="&#xa2;" horiz-adv-x="1063" d="M174 768q0 184 92.5 300.5t249.5 131.5v127h100v-127q107 -12 165.5 -37.5t58.5 -60.5q0 -9 -1 -14.5t-3 -10.5l-29 -65q-33 41 -81 63.5t-109 24.5l-1 -666q66 0 120.5 25t101.5 76v-84q0 -6 -1 -12.5t-1 -8.5q0 -40 -59.5 -69.5t-159.5 -36.5l-1 -297l-100 -27v324 q-158 16 -250 135.5t-92 308.5zM307 768q0 -138 57 -229t152 -105v666q-101 -26 -155 -111.5t-54 -220.5z" />
<glyph unicode="&#xa3;" horiz-adv-x="1063" d="M140 627l36 104q13 0 33.5 -1t28.5 -1q9 0 21 1t15 1q-44 126 -60.5 195.5t-16.5 122.5q0 132 90.5 207t251.5 75q134 0 241 -46t107 -95q0 -8 -3 -19t-8 -21l-28 -65q-53 65 -130.5 99.5t-172.5 34.5q-97 0 -157 -51t-60 -132q0 -50 21 -130t61 -175h137q38 0 83 3.5 t103 10.5l-24 -112h-273q21 -56 31 -108.5t10 -104.5q0 -83 -20.5 -160t-59.5 -141q55 -8 98 -11.5t80 -3.5q119 0 211 12.5t138 33.5l-33 -111q-9 -27 -34.5 -42t-63.5 -15q-10 0 -139.5 11t-247.5 11q-51 0 -108 -3t-122 -9v4q81 61 126.5 167t45.5 234q0 62 -10 120 t-31 116h-90q-18 0 -38 -1.5t-39 -4.5z" />
<glyph unicode="&#xa4;" horiz-adv-x="1063" d="M0 487l25 80h118q-1 15 -1.5 32t-0.5 52q0 45 1 66.5t3 40.5h-145l25 80h133q41 229 181.5 359t344.5 130q82 0 164.5 -16.5t132.5 -42.5q17 -10 22 -15.5t5 -13.5q0 -3 -1 -7t-4 -12l-32 -102q-39 44 -117 70t-170 26q-147 0 -250.5 -99.5t-138.5 -276.5h586l-25 -80 h-573q-3 -18 -3.5 -39t-0.5 -66q0 -17 0.5 -36t3.5 -50h516l-25 -80h-483q32 -195 132.5 -296t260.5 -101q121 0 199 35.5t127 114.5v-121q0 -15 -1 -21t-3 -11q-3 -8 -9.5 -15.5t-29.5 -26.5q-45 -34 -116.5 -52t-166.5 -18q-220 0 -356.5 132t-173.5 380h-154z" />
<glyph unicode="&#xa5;" horiz-adv-x="1063" d="M68 1305h206q6 -38 22.5 -82t43.5 -93l205 -362l205 362q25 44 39 87.5t18 86.5h186l-3 -4q-74 -106 -120 -186l-137 -246h213v-80h-256l-86 -149v-41h342v-80h-342v-328q0 -80 5 -121t15 -69h-171q10 31 15 75.5t5 114.5v328h-342v80h342v41l-92 149h-250v80h211 l-139 246q-41 74 -72 117.5t-63 73.5z" />
<glyph unicode="&#xa6;" d="M467 -350v758h90v-758h-90zM467 674v758h90v-758h-90z" />
<glyph unicode="&#xa7;" d="M125 694q0 97 63.5 165t173.5 87q-60 53 -90 110.5t-30 121.5q0 111 79 184.5t199 73.5q61 0 125.5 -18t97.5 -42q10 -7 14.5 -16t4.5 -25v-10v-104q-66 55 -125 80.5t-119 25.5q-61 0 -102 -38.5t-41 -96.5q0 -103 224 -284q49 -39 75 -60q119 -99 168 -176.5t49 -163.5 q0 -98 -60 -168.5t-165 -95.5q55 -64 81.5 -124t26.5 -122q0 -118 -79.5 -196t-200.5 -78q-108 0 -197.5 40.5t-89.5 75.5q0 17 2 27l20 74q71 -52 133 -77.5t117 -25.5q79 0 123.5 40.5t44.5 111.5q0 120 -245 320q-50 41 -76 63q-103 87 -152 165.5t-49 155.5zM244 698 q0 -71 77 -156.5t273 -226.5q89 25 135.5 71t46.5 110q0 116 -311 367l-25 20q-97 -22 -146.5 -68.5t-49.5 -116.5z" />
<glyph unicode="&#xa8;" d="M264 1276q0 32 25 58t57 26q35 0 58.5 -24t23.5 -60q0 -33 -24.5 -57.5t-57.5 -24.5q-31 0 -56.5 25.5t-25.5 56.5zM596 1276q0 32 25 57t57 25q35 0 58.5 -23.5t23.5 -58.5q0 -33 -24.5 -57.5t-57.5 -24.5q-31 0 -56.5 25.5t-25.5 56.5z" />
<glyph unicode="&#xa9;" horiz-adv-x="1706" d="M123 721q0 145 56 279t161 241q101 103 232 157t280 54t282.5 -55t237.5 -160q103 -102 157 -235t54 -281q0 -150 -53.5 -280t-157.5 -232q-107 -106 -241.5 -162.5t-278.5 -56.5q-145 0 -277 55.5t-237 161.5q-105 104 -160 236t-55 278zM195 721q0 -130 50 -249.5 t144 -213.5t213.5 -144.5t249.5 -50.5t251.5 51t217.5 146q93 92 141.5 209.5t48.5 251.5q0 133 -49 252.5t-141 212.5q-95 95 -215 144.5t-254 49.5q-133 0 -251.5 -49t-209.5 -141q-95 -97 -145.5 -218t-50.5 -251zM471 725q0 205 107 328t282 123q132 0 222.5 -72 t103.5 -186h-105q-20 81 -79.5 126.5t-147.5 45.5q-126 0 -196 -97.5t-70 -273.5q0 -169 71.5 -267t194.5 -98q91 0 156 52.5t84 140.5h102q-11 -123 -108 -201t-240 -78q-173 0 -275 123.5t-102 333.5z" />
<glyph unicode="&#xaa;" horiz-adv-x="680" d="M86 879q0 109 90.5 167.5t275.5 67.5l1 137q0 55 -30.5 80t-96.5 25q-65 0 -116 -21.5t-89 -64.5l-19 51q0 4 -1 9.5t-1 6.5q0 34 70 63.5t164 29.5q107 0 161 -44t54 -131v-391q0 -37 14.5 -65.5t44.5 -46.5l-63 -35q-10 -6 -15.5 -8t-9.5 -2q-12 0 -25.5 17t-27.5 50 q-38 -34 -84.5 -50.5t-99.5 -16.5q-91 0 -144 46t-53 126zM176 889q0 -49 35 -80t90 -31q69 0 110.5 36.5t41.5 96.5v131q-132 -4 -204.5 -44t-72.5 -109z" />
<glyph unicode="&#xab;" horiz-adv-x="801" d="M100 477q55 67 107 145t115 191h75q-14 -71 -53.5 -154t-105.5 -182q61 -80 101.5 -164.5t57.5 -171.5h-75q-43 100 -97.5 182.5t-124.5 153.5zM403 477q56 67 107.5 145t114.5 191h75q-14 -70 -52.5 -151.5t-106.5 -184.5q61 -80 101.5 -164.5t57.5 -171.5h-75 q-43 100 -97 182.5t-125 153.5z" />
<glyph unicode="&#xac;" horiz-adv-x="1706" d="M254 774v82h1198v-502h-78v420h-1120z" />
<glyph unicode="&#xad;" horiz-adv-x="750" d="M170 492v112h408v-112h-408z" />
<glyph unicode="&#xae;" horiz-adv-x="1706" d="M123 721q0 145 56 279t161 241q101 103 232 157t280 54t282.5 -55t237.5 -160q103 -102 157 -235t54 -281q0 -150 -53.5 -280t-157.5 -232q-107 -106 -241.5 -162.5t-278.5 -56.5q-145 0 -277 55.5t-237 161.5q-105 104 -160 236t-55 278zM195 721q0 -130 50 -249.5 t144 -213.5t213.5 -144.5t249.5 -50.5t251.5 51t217.5 146q93 92 141.5 209.5t48.5 251.5q0 133 -49 252.5t-141 212.5q-95 95 -215 144.5t-254 49.5q-133 0 -251.5 -49t-209.5 -141q-95 -97 -145.5 -218t-50.5 -251zM569 309v846h305q180 0 264.5 -56.5t84.5 -176.5 q0 -89 -55.5 -149t-147.5 -71l190 -393h-131l-182 377h-213v-377h-115zM684 764h168q145 0 199.5 36t54.5 126q0 78 -61.5 114.5t-192.5 36.5h-168v-313z" />
<glyph unicode="&#xaf;" d="M266 1227v100h492v-100h-492z" />
<glyph unicode="&#xb0;" horiz-adv-x="674" d="M63 1176q0 114 80.5 194t194.5 80q112 0 192 -80.5t80 -193.5q0 -114 -80 -193.5t-194 -79.5q-115 0 -194 79t-79 194zM125 1176q0 -89 62.5 -151t150.5 -62t150.5 62t62.5 151q0 87 -63 150t-150 63q-89 0 -151 -62t-62 -151z" />
<glyph unicode="&#xb1;" horiz-adv-x="1706" d="M254 59v82h1198v-82h-1198zM254 727v80h559v354h80v-354h559v-80h-559v-352h-80v352h-559z" />
<glyph unicode="&#xb2;" horiz-adv-x="702" d="M57 522q227 250 328.5 395.5t101.5 219.5q0 53 -38 84.5t-103 31.5q-52 0 -110.5 -20.5t-110.5 -56.5l-19 29q-3 6 -4.5 11t-1.5 9q0 33 80 63.5t176 30.5q103 0 161 -44t58 -122q0 -86 -75.5 -209.5t-274.5 -351.5h246q49 0 75.5 4t51.5 12l-23 -56q-9 -22 -19.5 -29 t-35.5 -7t-109 3t-143 3q-102 0 -142.5 -0.5t-67.5 -1.5z" />
<glyph unicode="&#xb3;" horiz-adv-x="702" d="M98 559q2 0 2 2l9 49q44 -20 85.5 -30.5t81.5 -10.5q98 0 159 53t61 138q0 84 -66 135t-199 70q103 30 154 73t51 99q0 53 -42 84.5t-113 31.5q-51 0 -92.5 -9t-71.5 -27v45q0 26 42 40.5t117 14.5q119 0 184.5 -47.5t65.5 -132.5q0 -60 -32.5 -103t-92.5 -61 q87 -22 136 -79.5t49 -139.5q0 -112 -82.5 -180t-218.5 -68q-84 0 -135.5 14.5t-51.5 38.5z" />
<glyph unicode="&#xb4;" d="M391 1120l215 350h133l-268 -350h-80z" />
<glyph unicode="&#xb5;" horiz-adv-x="1094" d="M-111 -424l316 1487h121l-123 -590q-9 -43 -13 -77t-4 -64q0 -126 60 -192t174 -66q127 0 219.5 109t136.5 313l125 567h121l-166 -786q-2 -9 -5 -24q-20 -92 -20 -112q0 -31 17.5 -47t50.5 -16q9 0 18.5 0.5t20.5 1.5l-18 -96q-3 -1 -8 -2q-49 -11 -68 -11 q-68 0 -100.5 31.5t-32.5 95.5q0 7 0.5 16t3.5 29q-43 -83 -123.5 -127.5t-188.5 -44.5q-97 0 -169.5 45.5t-104.5 126.5l-119 -567h-121z" />
<glyph unicode="&#xb6;" d="M90 1130q0 157 108.5 253t286.5 96h447v-64h-129v-1415h-70v1415h-192v-1415h-70v782q-175 8 -278 102.5t-103 245.5z" />
<glyph unicode="&#xb7;" horiz-adv-x="530" d="M172 666q0 37 28 64.5t66 27.5q39 0 65.5 -27t26.5 -65t-27 -65.5t-65 -27.5q-37 0 -65.5 28t-28.5 65z" />
<glyph unicode="&#xb8;" d="M295 -348q73 -17 127 -25t96 -8q73 0 110.5 25.5t37.5 74.5q0 54 -38.5 79.5t-117.5 25.5q-21 0 -32 -0.5t-21 -1.5v178h59v-113h23q102 0 154 -41.5t52 -121.5q0 -86 -57.5 -131.5t-165.5 -45.5q-49 0 -105.5 9t-121.5 26v70z" />
<glyph unicode="&#xb9;" horiz-adv-x="700" d="M287 1288l114 29q-2 -13 -3 -29t-1 -51v-657q0 -16 3.5 -30t10.5 -30h-122q10 22 14 35t4 25v630q0 25 -5 44.5t-15 33.5z" />
<glyph unicode="&#xba;" horiz-adv-x="782" d="M66 1069q0 170 85.5 265.5t239.5 95.5q153 0 240.5 -96.5t87.5 -264.5q0 -169 -87.5 -265.5t-240.5 -96.5t-239 95.5t-86 266.5zM164 1069q0 -138 60 -214.5t167 -76.5t167 77t60 214q0 136 -59.5 211.5t-167.5 75.5t-167.5 -75.5t-59.5 -211.5z" />
<glyph unicode="&#xbb;" horiz-adv-x="801" d="M100 141q13 70 52.5 153t107.5 183q-62 80 -102 165t-58 171h74q42 -99 97 -181.5t126 -154.5q-55 -66 -106.5 -144.5t-114.5 -191.5h-76zM403 141q14 70 53 153t107 183q-62 80 -102 165t-58 171h76q43 -101 97 -183.5t124 -152.5q-55 -66 -106.5 -144.5t-114.5 -191.5 h-76z" />
<glyph unicode="&#xbc;" horiz-adv-x="1681" d="M272 1290l111 26q-3 -11 -4.5 -25.5t-1.5 -47.5v-614q0 -13 3 -25t11 -31l-116 1q8 15 12 28.5t4 26.5v588q0 25 -4.5 42t-14.5 31zM328 -25l911 1352h113l-910 -1352h-114zM1030 150v4l428 591h72v-534h43q7 0 17 1.5t30 6.5v-35q0 -24 -6.5 -29t-24.5 -5h-59v-203 q0 -21 -6.5 -32.5t-20.5 -16.5l-78 -33q11 27 16 54t5 54v177h-416zM1157 211h289l6 418z" />
<glyph unicode="&#xbd;" horiz-adv-x="1681" d="M272 1290l111 26q-3 -11 -4.5 -25.5t-1.5 -47.5v-614q0 -13 3 -25t11 -31l-116 1q8 15 12 28.5t4 26.5v588q0 25 -4.5 42t-14.5 31zM328 -25l911 1352h113l-910 -1352h-114zM1067 1v1q219 238 314.5 371.5t95.5 201.5q0 50 -36.5 79.5t-99.5 29.5q-50 0 -105 -19.5 t-103 -54.5l-19 29q-3 5 -4.5 9.5t-1.5 8.5q0 31 76.5 59.5t167.5 28.5q98 0 153.5 -41t55.5 -114q0 -81 -72 -195.5t-262 -328.5h233q48 0 73 3.5t48 12.5l-20 -51q-8 -21 -18 -28t-34 -7t-104.5 3t-136.5 3q-99 0 -137.5 -0.5t-63.5 -0.5z" />
<glyph unicode="&#xbe;" horiz-adv-x="1681" d="M94 608q2 2 2 4l6 45q45 -19 85 -29t77 -10q93 0 151 50t58 129t-62.5 126t-189.5 64q98 29 146.5 69.5t48.5 92.5q0 50 -40 79t-108 29q-47 0 -86.5 -8.5t-68.5 -25.5v43q0 23 41 37t110 14q113 0 175.5 -44t62.5 -124q0 -54 -31.5 -94.5t-87.5 -59.5q84 -19 130 -73 t46 -131q0 -104 -79 -167t-210 -63q-78 0 -127 13t-49 34zM328 -25l911 1352h113l-910 -1352h-114zM1030 150v4l428 591h72v-534h43q7 0 17 1.5t30 6.5v-35q0 -24 -6.5 -29t-24.5 -5h-59v-203q0 -21 -6.5 -32.5t-20.5 -16.5l-78 -33q11 27 16 54t5 54v177h-416zM1157 211 h289l6 418z" />
<glyph unicode="&#xbf;" horiz-adv-x="696" d="M74 227q0 129 158 346q25 35 38 54q37 52 54.5 111.5t17.5 135.5q0 31 -4 64.5t-12 69.5l129 -66v-6q4 -60 4 -84q0 -72 -18 -136t-54 -120q-22 -34 -67 -95q-119 -164 -119 -259q0 -67 40 -109.5t103 -42.5q53 0 103.5 30t84.5 83l54 -47q7 -8 12.5 -20.5t5.5 -24.5 q0 -46 -85 -93t-185 -47q-117 0 -188.5 71t-71.5 185zM283 1339q0 40 29.5 68.5t68.5 28.5q38 0 67 -29t29 -68q0 -40 -28 -69t-68 -29q-42 0 -70 28.5t-28 69.5z" />
<glyph unicode="&#xc0;" horiz-adv-x="1366" d="M106 0q22 358 151.5 685t360.5 609q-7 0 -37 1t-53 1q-46 0 -96.5 -5.5t-109.5 -16.5q16 33 25.5 68.5t13.5 78.5q14 -4 32 -6t51 -2h31h416q150 -267 236.5 -629t101.5 -784h-189q13 25 19 55.5t6 79.5q0 122 -6.5 215t-20.5 162h-706q-33 -79 -51.5 -181t-18.5 -208 q0 -34 6 -64t19 -59h-181zM371 625h647q-27 173 -77.5 344t-121.5 325h-47q-131 -145 -233 -315t-168 -354zM502 1896h133l215 -350h-80z" />
<glyph unicode="&#xc1;" horiz-adv-x="1366" d="M106 0q22 358 151.5 685t360.5 609q-7 0 -37 1t-53 1q-46 0 -96.5 -5.5t-109.5 -16.5q16 33 25.5 68.5t13.5 78.5q14 -4 32 -6t51 -2h31h416q150 -267 236.5 -629t101.5 -784h-189q13 25 19 55.5t6 79.5q0 122 -6.5 215t-20.5 162h-706q-33 -79 -51.5 -181t-18.5 -208 q0 -34 6 -64t19 -59h-181zM371 625h647q-27 173 -77.5 344t-121.5 325h-47q-131 -145 -233 -315t-168 -354zM608 1546l215 350h133l-268 -350h-80z" />
<glyph unicode="&#xc2;" horiz-adv-x="1366" d="M106 0q22 358 151.5 685t360.5 609q-7 0 -37 1t-53 1q-46 0 -96.5 -5.5t-109.5 -16.5q16 33 25.5 68.5t13.5 78.5q14 -4 32 -6t51 -2h31h416q150 -267 236.5 -629t101.5 -784h-189q13 25 19 55.5t6 79.5q0 122 -6.5 215t-20.5 162h-706q-33 -79 -51.5 -181t-18.5 -208 q0 -34 6 -64t19 -59h-181zM371 625h647q-27 173 -77.5 344t-121.5 325h-47q-131 -145 -233 -315t-168 -354zM455 1546l208 350h132l206 -350h-79l-193 277l-193 -277h-81z" />
<glyph unicode="&#xc3;" horiz-adv-x="1366" d="M106 0q22 358 151.5 685t360.5 609q-7 0 -37 1t-53 1q-46 0 -96.5 -5.5t-109.5 -16.5q16 33 25.5 68.5t13.5 78.5q14 -4 32 -6t51 -2h31h416q150 -267 236.5 -629t101.5 -784h-189q13 25 19 55.5t6 79.5q0 122 -6.5 215t-20.5 162h-706q-33 -79 -51.5 -181t-18.5 -208 q0 -34 6 -64t19 -59h-181zM371 625h647q-27 173 -77.5 344t-121.5 325h-47q-131 -145 -233 -315t-168 -354zM444 1612q23 85 68.5 127.5t114.5 42.5q15 0 32 -2.5t38 -8.5l85 -28q13 -4 26.5 -6t29.5 -2q32 0 57 17t45 52h72q-27 -86 -72 -129t-111 -43q-17 0 -35 3t-38 10 l-88 26q-15 4 -28 6t-28 2q-28 0 -53.5 -17.5t-42.5 -49.5h-72z" />
<glyph unicode="&#xc4;" horiz-adv-x="1366" d="M106 0q22 358 151.5 685t360.5 609q-7 0 -37 1t-53 1q-46 0 -96.5 -5.5t-109.5 -16.5q16 33 25.5 68.5t13.5 78.5q14 -4 32 -6t51 -2h31h416q150 -267 236.5 -629t101.5 -784h-189q13 25 19 55.5t6 79.5q0 122 -6.5 215t-20.5 162h-706q-33 -79 -51.5 -181t-18.5 -208 q0 -34 6 -64t19 -59h-181zM371 625h647q-27 173 -77.5 344t-121.5 325h-47q-131 -145 -233 -315t-168 -354zM481 1702q0 32 25 58t57 26q35 0 58.5 -24t23.5 -60q0 -33 -24.5 -57.5t-57.5 -24.5q-31 0 -56.5 25.5t-25.5 56.5zM813 1702q0 32 25 57t57 25q35 0 58.5 -23.5 t23.5 -58.5q0 -33 -24.5 -57.5t-57.5 -24.5q-31 0 -56.5 25.5t-25.5 56.5z" />
<glyph unicode="&#xc5;" horiz-adv-x="1366" d="M106 0q22 358 151.5 685t360.5 609q-7 0 -37 1t-53 1q-46 0 -96.5 -5.5t-109.5 -16.5q16 33 25.5 68.5t13.5 78.5q14 -4 32 -6t51 -2h31h416q150 -267 236.5 -629t101.5 -784h-189q13 25 19 55.5t6 79.5q0 122 -6.5 215t-20.5 162h-706q-33 -79 -51.5 -181t-18.5 -208 q0 -34 6 -64t19 -59h-181zM371 625h647q-27 173 -77.5 344t-121.5 325h-47q-131 -145 -233 -315t-168 -354zM535 1712q0 98 67.5 166t165.5 68q97 0 165 -68.5t68 -165.5t-68 -165t-165 -68q-98 0 -165.5 68t-67.5 165zM614 1712q0 -64 44.5 -107.5t109.5 -43.5t109.5 43.5 t44.5 107.5t-45 109t-109 45t-109 -45t-45 -109z" />
<glyph unicode="&#xc6;" horiz-adv-x="1550" d="M106 -2q14 333 140.5 654.5t374.5 652.5h-6q-56 4 -87 4q-57 0 -107.5 -5t-98.5 -16q17 47 26.5 79.5t12.5 57.5q20 -6 43.5 -9t70.5 -3h811q84 0 106 -8t23 -28l6 -93q-19 13 -49.5 19t-109.5 6h-279v-510h256q27 0 48.5 4t41.5 12v-137q-23 8 -41.5 12t-34.5 4h-270 v-594h354q47 0 81 8.5t69 26.5l-41 -116q-6 -16 -18.5 -21.5t-45.5 -5.5q-7 0 -157 5t-291 5q-24 0 -49.5 -0.5t-54.5 -1.5q8 14 12 30t4 40v440h-514q-34 -88 -52 -188.5t-18 -198.5q0 -34 6 -65t19 -60h-181zM371 623h475v686h-74q-105 -117 -210.5 -297.5t-190.5 -388.5z " />
<glyph unicode="&#xc7;" horiz-adv-x="1241" d="M94 713q0 334 176.5 528.5t479.5 194.5q140 0 262.5 -34.5t122.5 -66.5l-2 -5.5t-3 -8.5l-38 -125q-53 59 -143.5 93t-192.5 34q-253 0 -385.5 -157t-132.5 -455q0 -292 138.5 -456.5t383.5 -164.5q134 0 230 48.5t157 146.5v-154q0 -65 -112.5 -110.5t-280.5 -45.5 q-304 0 -482 198.5t-178 539.5zM502 -348q73 -17 127 -25t96 -8q73 0 110.5 25.5t37.5 74.5q0 54 -38.5 79.5t-117.5 25.5q-21 0 -32 -0.5t-21 -1.5v178h59v-113h23q102 0 154 -41.5t52 -121.5q0 -86 -57.5 -131.5t-165.5 -45.5q-49 0 -105.5 9t-121.5 26v70z" />
<glyph unicode="&#xc8;" horiz-adv-x="891" d="M166 1415q6 0 15 -1t12 -1h114h318q84 0 106.5 -7.5t24.5 -29.5l6 -92q-20 13 -50.5 19t-109.5 6h-280v-510h264q42 0 61 3.5t37 12.5v-137q-23 8 -41.5 12t-34.5 4h-286v-594h342q57 0 91.5 8.5t69.5 26.5l-39 -117q-5 -15 -17.5 -20.5t-45.5 -5.5q-7 0 -157.5 4 t-291.5 4h-55h-51q8 13 12 29t4 41v1263q0 19 -4.5 39t-13.5 43zM242 1896h133l215 -350h-80z" />
<glyph unicode="&#xc9;" horiz-adv-x="891" d="M166 1415q6 0 15 -1t12 -1h114h318q84 0 106.5 -7.5t24.5 -29.5l6 -92q-20 13 -50.5 19t-109.5 6h-280v-510h264q42 0 61 3.5t37 12.5v-137q-23 8 -41.5 12t-34.5 4h-286v-594h342q57 0 91.5 8.5t69.5 26.5l-39 -117q-5 -15 -17.5 -20.5t-45.5 -5.5q-7 0 -157.5 4 t-291.5 4h-55h-51q8 13 12 29t4 41v1263q0 19 -4.5 39t-13.5 43zM348 1546l215 350h133l-268 -350h-80z" />
<glyph unicode="&#xca;" horiz-adv-x="891" d="M166 1415q6 0 15 -1t12 -1h114h318q84 0 106.5 -7.5t24.5 -29.5l6 -92q-20 13 -50.5 19t-109.5 6h-280v-510h264q42 0 61 3.5t37 12.5v-137q-23 8 -41.5 12t-34.5 4h-286v-594h342q57 0 91.5 8.5t69.5 26.5l-39 -117q-5 -15 -17.5 -20.5t-45.5 -5.5q-7 0 -157.5 4 t-291.5 4h-55h-51q8 13 12 29t4 41v1263q0 19 -4.5 39t-13.5 43zM195 1546l208 350h132l206 -350h-79l-193 277l-193 -277h-81z" />
<glyph unicode="&#xcb;" horiz-adv-x="891" d="M166 1415q6 0 15 -1t12 -1h114h318q84 0 106.5 -7.5t24.5 -29.5l6 -92q-20 13 -50.5 19t-109.5 6h-280v-510h264q42 0 61 3.5t37 12.5v-137q-23 8 -41.5 12t-34.5 4h-286v-594h342q57 0 91.5 8.5t69.5 26.5l-39 -117q-5 -15 -17.5 -20.5t-45.5 -5.5q-7 0 -157.5 4 t-291.5 4h-55h-51q8 13 12 29t4 41v1263q0 19 -4.5 39t-13.5 43zM221 1702q0 32 25 58t57 26q35 0 58.5 -24t23.5 -60q0 -33 -24.5 -57.5t-57.5 -24.5q-31 0 -56.5 25.5t-25.5 56.5zM553 1702q0 32 25 57t57 25q35 0 58.5 -23.5t23.5 -58.5q0 -33 -24.5 -57.5t-57.5 -24.5 q-31 0 -56.5 25.5t-25.5 56.5z" />
<glyph unicode="&#xcc;" horiz-adv-x="512" d="M29 1896h133l215 -350h-80zM164 0q11 30 15.5 73.5t4.5 133.5v997q0 91 -4.5 135.5t-15.5 73.5h184q-11 -29 -15.5 -72.5t-4.5 -136.5v-997q0 -92 4.5 -135t15.5 -72h-184z" />
<glyph unicode="&#xcd;" horiz-adv-x="512" d="M135 1546l215 350h133l-268 -350h-80zM164 0q11 30 15.5 73.5t4.5 133.5v997q0 91 -4.5 135.5t-15.5 73.5h184q-11 -29 -15.5 -72.5t-4.5 -136.5v-997q0 -92 4.5 -135t15.5 -72h-184z" />
<glyph unicode="&#xce;" horiz-adv-x="512" d="M-18 1546l208 350h132l206 -350h-79l-193 277l-193 -277h-81zM164 0q11 30 15.5 73.5t4.5 133.5v997q0 91 -4.5 135.5t-15.5 73.5h184q-11 -29 -15.5 -72.5t-4.5 -136.5v-997q0 -92 4.5 -135t15.5 -72h-184z" />
<glyph unicode="&#xcf;" horiz-adv-x="512" d="M8 1702q0 32 25 58t57 26q35 0 58.5 -24t23.5 -60q0 -33 -24.5 -57.5t-57.5 -24.5q-31 0 -56.5 25.5t-25.5 56.5zM164 0q11 30 15.5 73.5t4.5 133.5v997q0 91 -4.5 135.5t-15.5 73.5h184q-11 -29 -15.5 -72.5t-4.5 -136.5v-997q0 -92 4.5 -135t15.5 -72h-184zM340 1702 q0 32 25 57t57 25q35 0 58.5 -23.5t23.5 -58.5q0 -33 -24.5 -57.5t-57.5 -24.5q-31 0 -56.5 25.5t-25.5 56.5z" />
<glyph unicode="&#xd0;" horiz-adv-x="1313" d="M31 709v94h184v401q0 82 -5.5 129.5t-16.5 79.5q11 -1 22.5 -1.5t32.5 -0.5q18 0 48.5 1t41.5 1h260q304 0 463.5 -180t159.5 -522q0 -334 -168 -522.5t-463 -188.5h-273q-6 0 -30 1t-41 1q-20 0 -31.5 -0.5t-21.5 -1.5q11 32 16.5 79t5.5 128v502h-184zM352 119 q69 -6 115 -8t80 -2q278 0 404 144t126 464q0 295 -132 441.5t-398 146.5q-22 0 -71 -3.5t-124 -9.5v-489h334v-94h-334v-590z" />
<glyph unicode="&#xd1;" horiz-adv-x="1446" d="M145 1413h177l780 -1204v995q0 83 -5.5 131t-17.5 78h183q-12 -30 -17.5 -78t-5.5 -131v-1079q0 -32 3 -63t9 -62h-149l-780 1202v-995q0 -82 5 -129t17 -78h-180q11 30 15.5 73.5t4.5 133.5v997q0 112 -8.5 150t-30.5 59zM471 1612q23 85 68.5 127.5t114.5 42.5 q15 0 32 -2.5t38 -8.5l85 -28q13 -4 26.5 -6t29.5 -2q32 0 57 17t45 52h72q-27 -86 -72 -129t-111 -43q-17 0 -35 3t-38 10l-88 26q-15 4 -28 6t-28 2q-28 0 -53.5 -17.5t-42.5 -49.5h-72z" />
<glyph unicode="&#xd2;" horiz-adv-x="1489" d="M94 707q0 342 172 535.5t477 193.5q306 0 479 -193.5t173 -535.5q0 -343 -173 -537.5t-479 -194.5q-305 0 -477 194.5t-172 537.5zM231 707q0 -293 135 -455t377 -162q243 0 377.5 162t134.5 455q0 292 -134.5 454t-377.5 162q-242 0 -377 -162t-135 -454zM518 1896h133 l215 -350h-80z" />
<glyph unicode="&#xd3;" horiz-adv-x="1489" d="M94 707q0 342 172 535.5t477 193.5q306 0 479 -193.5t173 -535.5q0 -343 -173 -537.5t-479 -194.5q-305 0 -477 194.5t-172 537.5zM231 707q0 -293 135 -455t377 -162q243 0 377.5 162t134.5 455q0 292 -134.5 454t-377.5 162q-242 0 -377 -162t-135 -454zM624 1546 l215 350h133l-268 -350h-80z" />
<glyph unicode="&#xd4;" horiz-adv-x="1489" d="M94 707q0 342 172 535.5t477 193.5q306 0 479 -193.5t173 -535.5q0 -343 -173 -537.5t-479 -194.5q-305 0 -477 194.5t-172 537.5zM231 707q0 -293 135 -455t377 -162q243 0 377.5 162t134.5 455q0 292 -134.5 454t-377.5 162q-242 0 -377 -162t-135 -454zM471 1546 l208 350h132l206 -350h-79l-193 277l-193 -277h-81z" />
<glyph unicode="&#xd5;" horiz-adv-x="1489" d="M94 707q0 342 172 535.5t477 193.5q306 0 479 -193.5t173 -535.5q0 -343 -173 -537.5t-479 -194.5q-305 0 -477 194.5t-172 537.5zM231 707q0 -293 135 -455t377 -162q243 0 377.5 162t134.5 455q0 292 -134.5 454t-377.5 162q-242 0 -377 -162t-135 -454zM460 1612 q23 85 68.5 127.5t114.5 42.5q15 0 32 -2.5t38 -8.5l85 -28q13 -4 26.5 -6t29.5 -2q32 0 57 17t45 52h72q-27 -86 -72 -129t-111 -43q-17 0 -35 3t-38 10l-88 26q-15 4 -28 6t-28 2q-28 0 -53.5 -17.5t-42.5 -49.5h-72z" />
<glyph unicode="&#xd6;" horiz-adv-x="1489" d="M94 707q0 342 172 535.5t477 193.5q306 0 479 -193.5t173 -535.5q0 -343 -173 -537.5t-479 -194.5q-305 0 -477 194.5t-172 537.5zM231 707q0 -293 135 -455t377 -162q243 0 377.5 162t134.5 455q0 292 -134.5 454t-377.5 162q-242 0 -377 -162t-135 -454zM497 1702 q0 32 25 58t57 26q35 0 58.5 -24t23.5 -60q0 -33 -24.5 -57.5t-57.5 -24.5q-31 0 -56.5 25.5t-25.5 56.5zM829 1702q0 32 25 57t57 25q35 0 58.5 -23.5t23.5 -58.5q0 -33 -24.5 -57.5t-57.5 -24.5q-31 0 -56.5 25.5t-25.5 56.5z" />
<glyph unicode="&#xd7;" horiz-adv-x="1706" d="M309 123l488 487l-488 488l58 57l487 -487l487 487l58 -57l-488 -488l488 -487l-58 -57l-487 487l-487 -487z" />
<glyph unicode="&#xd8;" horiz-adv-x="1489" d="M94 707q0 342 172 535.5t477 193.5q116 0 203.5 -23.5t167.5 -75.5l113 162l88 -59l-117 -170q99 -108 148 -248.5t49 -314.5q0 -342 -174 -537t-478 -195q-124 0 -216 27t-167 84l-120 -176l-88 65l127 183q-92 102 -138.5 240t-46.5 309zM231 707q0 -138 32 -253 t91 -190l686 971q-54 43 -129.5 65.5t-167.5 22.5q-242 0 -377 -162t-135 -454zM432 188q55 -50 132.5 -75t178.5 -25q242 0 377 163.5t135 455.5q0 140 -34.5 253.5t-102.5 198.5z" />
<glyph unicode="&#xd9;" horiz-adv-x="1413" d="M158 573q0 195 35.5 454.5t35.5 313.5q0 22 -1 38.5t-3 33.5h195q-57 -176 -89 -387.5t-32 -415.5q0 -277 94 -397.5t305 -120.5q114 0 217 33t172 92v987q0 84 -5 129t-17 80h186q-11 -37 -16.5 -85.5t-5.5 -123.5v-971q0 -66 13.5 -110t43.5 -82l-127 -66 q-20 22 -34 48.5t-23 57.5q-105 -54 -211.5 -80t-226.5 -26q-256 0 -381 148t-125 450zM521 1896h133l215 -350h-80z" />
<glyph unicode="&#xda;" horiz-adv-x="1413" d="M158 573q0 195 35.5 454.5t35.5 313.5q0 22 -1 38.5t-3 33.5h195q-57 -176 -89 -387.5t-32 -415.5q0 -277 94 -397.5t305 -120.5q114 0 217 33t172 92v987q0 84 -5 129t-17 80h186q-11 -37 -16.5 -85.5t-5.5 -123.5v-971q0 -66 13.5 -110t43.5 -82l-127 -66 q-20 22 -34 48.5t-23 57.5q-105 -54 -211.5 -80t-226.5 -26q-256 0 -381 148t-125 450zM627 1546l215 350h133l-268 -350h-80z" />
<glyph unicode="&#xdb;" horiz-adv-x="1413" d="M158 573q0 195 35.5 454.5t35.5 313.5q0 22 -1 38.5t-3 33.5h195q-57 -176 -89 -387.5t-32 -415.5q0 -277 94 -397.5t305 -120.5q114 0 217 33t172 92v987q0 84 -5 129t-17 80h186q-11 -37 -16.5 -85.5t-5.5 -123.5v-971q0 -66 13.5 -110t43.5 -82l-127 -66 q-20 22 -34 48.5t-23 57.5q-105 -54 -211.5 -80t-226.5 -26q-256 0 -381 148t-125 450zM474 1546l208 350h132l206 -350h-79l-193 277l-193 -277h-81z" />
<glyph unicode="&#xdc;" horiz-adv-x="1413" d="M158 573q0 195 35.5 454.5t35.5 313.5q0 22 -1 38.5t-3 33.5h195q-57 -176 -89 -387.5t-32 -415.5q0 -277 94 -397.5t305 -120.5q114 0 217 33t172 92v987q0 84 -5 129t-17 80h186q-11 -37 -16.5 -85.5t-5.5 -123.5v-971q0 -66 13.5 -110t43.5 -82l-127 -66 q-20 22 -34 48.5t-23 57.5q-105 -54 -211.5 -80t-226.5 -26q-256 0 -381 148t-125 450zM500 1702q0 32 25 58t57 26q35 0 58.5 -24t23.5 -60q0 -33 -24.5 -57.5t-57.5 -24.5q-31 0 -56.5 25.5t-25.5 56.5zM832 1702q0 32 25 57t57 25q35 0 58.5 -23.5t23.5 -58.5 q0 -33 -24.5 -57.5t-57.5 -24.5q-31 0 -56.5 25.5t-25.5 56.5z" />
<glyph unicode="&#xdd;" horiz-adv-x="915" d="M-2 1413h207v-6q0 -37 14 -87t43 -114l232 -510l237 516q26 58 37.5 103.5t11.5 87.5v10h193q-34 -41 -115 -214q-18 -41 -29 -62l-419 -899q-56 -120 -85.5 -170.5t-50.5 -61.5q-5 -3 -14.5 -4.5t-32.5 -1.5h-59h-88q55 37 97 85t71 108l174 354l-303 649q-4 8 -12 26 q-63 138 -109 191zM338 1546l215 350h133l-268 -350h-80z" />
<glyph unicode="&#xde;" d="M164 0q11 30 15.5 73.5t4.5 133.5v999q0 87 -4.5 134t-15.5 73h180q-12 -26 -17 -78t-5 -137v-47q49 5 94 7.5t86 2.5q204 0 319 -108t115 -299q0 -203 -131 -319t-363 -116q-47 0 -72.5 1t-47.5 4v-117q0 -82 5 -129t17 -78h-180zM322 438q26 -3 50.5 -4.5t45.5 -1.5 q182 0 278.5 82t96.5 238q0 145 -88.5 220t-260.5 75q-33 -1 -63 -3.5t-59 -7.5v-598z" />
<glyph unicode="&#xdf;" horiz-adv-x="1133" d="M147 0q13 35 18 83t5 142v1010q0 137 69.5 210t200.5 73q163 0 264 -98t101 -253q0 -82 -29.5 -152.5t-85.5 -123.5q172 -52 260 -167t88 -286q0 -206 -116.5 -336.5t-303.5 -130.5q-104 0 -167.5 27t-63.5 70v90q43 -40 95.5 -60t113.5 -20q131 0 218 102t87 258 q0 175 -113 275.5t-327 115.5q106 49 162.5 129.5t56.5 184.5q0 121 -65.5 196.5t-170.5 75.5q-81 0 -113 -43.5t-32 -187.5v-959q0 -94 5 -142t18 -83h-175z" />
<glyph unicode="&#xe0;" horiz-adv-x="905" d="M115 221q0 157 120.5 240.5t368.5 97.5v197q0 77 -40.5 112t-129.5 35q-87 0 -154.5 -30t-119.5 -91l-23 72q0 2 -1 7q-3 12 -3 18q0 47 93.5 89t217.5 42q143 0 215 -63t72 -187v-557q0 -55 20 -95.5t60 -66.5l-84 -51q-10 -6 -18.5 -9t-14.5 -4q-17 0 -35 24.5 t-36 72.5q-53 -50 -114 -74.5t-132 -24.5q-121 0 -191.5 66t-70.5 180zM228 1470h133l215 -350h-80zM236 238q0 -71 45.5 -114.5t119.5 -43.5q92 0 147.5 52t55.5 138v187q-177 -6 -272.5 -63t-95.5 -156z" />
<glyph unicode="&#xe1;" horiz-adv-x="905" d="M115 221q0 157 120.5 240.5t368.5 97.5v197q0 77 -40.5 112t-129.5 35q-87 0 -154.5 -30t-119.5 -91l-23 72q0 2 -1 7q-3 12 -3 18q0 47 93.5 89t217.5 42q143 0 215 -63t72 -187v-557q0 -55 20 -95.5t60 -66.5l-84 -51q-10 -6 -18.5 -9t-14.5 -4q-17 0 -35 24.5 t-36 72.5q-53 -50 -114 -74.5t-132 -24.5q-121 0 -191.5 66t-70.5 180zM236 238q0 -71 45.5 -114.5t119.5 -43.5q92 0 147.5 52t55.5 138v187q-177 -6 -272.5 -63t-95.5 -156zM334 1120l215 350h133l-268 -350h-80z" />
<glyph unicode="&#xe2;" horiz-adv-x="905" d="M115 221q0 157 120.5 240.5t368.5 97.5v197q0 77 -40.5 112t-129.5 35q-87 0 -154.5 -30t-119.5 -91l-23 72q0 2 -1 7q-3 12 -3 18q0 47 93.5 89t217.5 42q143 0 215 -63t72 -187v-557q0 -55 20 -95.5t60 -66.5l-84 -51q-10 -6 -18.5 -9t-14.5 -4q-17 0 -35 24.5 t-36 72.5q-53 -50 -114 -74.5t-132 -24.5q-121 0 -191.5 66t-70.5 180zM181 1120l208 350h132l206 -350h-79l-193 277l-193 -277h-81zM236 238q0 -71 45.5 -114.5t119.5 -43.5q92 0 147.5 52t55.5 138v187q-177 -6 -272.5 -63t-95.5 -156z" />
<glyph unicode="&#xe3;" horiz-adv-x="905" d="M115 221q0 157 120.5 240.5t368.5 97.5v197q0 77 -40.5 112t-129.5 35q-87 0 -154.5 -30t-119.5 -91l-23 72q0 2 -1 7q-3 12 -3 18q0 47 93.5 89t217.5 42q143 0 215 -63t72 -187v-557q0 -55 20 -95.5t60 -66.5l-84 -51q-10 -6 -18.5 -9t-14.5 -4q-17 0 -35 24.5 t-36 72.5q-53 -50 -114 -74.5t-132 -24.5q-121 0 -191.5 66t-70.5 180zM170 1186q23 85 68.5 127.5t114.5 42.5q15 0 32 -2.5t38 -8.5l85 -28q13 -4 26.5 -6t29.5 -2q32 0 57 17t45 52h72q-27 -86 -72 -129t-111 -43q-17 0 -35 3t-38 10l-88 26q-15 4 -28 6t-28 2 q-28 0 -53.5 -17.5t-42.5 -49.5h-72zM236 238q0 -71 45.5 -114.5t119.5 -43.5q92 0 147.5 52t55.5 138v187q-177 -6 -272.5 -63t-95.5 -156z" />
<glyph unicode="&#xe4;" horiz-adv-x="905" d="M115 221q0 157 120.5 240.5t368.5 97.5v197q0 77 -40.5 112t-129.5 35q-87 0 -154.5 -30t-119.5 -91l-23 72q0 2 -1 7q-3 12 -3 18q0 47 93.5 89t217.5 42q143 0 215 -63t72 -187v-557q0 -55 20 -95.5t60 -66.5l-84 -51q-10 -6 -18.5 -9t-14.5 -4q-17 0 -35 24.5 t-36 72.5q-53 -50 -114 -74.5t-132 -24.5q-121 0 -191.5 66t-70.5 180zM207 1276q0 32 25 58t57 26q35 0 58.5 -24t23.5 -60q0 -33 -24.5 -57.5t-57.5 -24.5q-31 0 -56.5 25.5t-25.5 56.5zM236 238q0 -71 45.5 -114.5t119.5 -43.5q92 0 147.5 52t55.5 138v187 q-177 -6 -272.5 -63t-95.5 -156zM539 1276q0 32 25 57t57 25q35 0 58.5 -23.5t23.5 -58.5q0 -33 -24.5 -57.5t-57.5 -24.5q-31 0 -56.5 25.5t-25.5 56.5z" />
<glyph unicode="&#xe5;" horiz-adv-x="905" d="M115 221q0 157 120.5 240.5t368.5 97.5v197q0 77 -40.5 112t-129.5 35q-87 0 -154.5 -30t-119.5 -91l-23 72q0 2 -1 7q-3 12 -3 18q0 47 93.5 89t217.5 42q143 0 215 -63t72 -187v-557q0 -55 20 -95.5t60 -66.5l-84 -51q-10 -6 -18.5 -9t-14.5 -4q-17 0 -35 24.5 t-36 72.5q-53 -50 -114 -74.5t-132 -24.5q-121 0 -191.5 66t-70.5 180zM229 1311q0 98 67.5 164.5t166.5 66.5q97 0 165 -67.5t68 -163.5q0 -97 -68.5 -166.5t-164.5 -69.5q-98 0 -166 69t-68 167zM236 238q0 -71 45.5 -114.5t119.5 -43.5q92 0 147.5 52t55.5 138v187 q-177 -6 -272.5 -63t-95.5 -156zM309 1311q0 -65 44.5 -109.5t109.5 -44.5q64 0 107.5 44.5t43.5 109.5q0 64 -44 107.5t-107 43.5q-64 0 -109 -44t-45 -107z" />
<glyph unicode="&#xe6;" horiz-adv-x="1407" d="M115 227q0 154 121 237.5t368 98.5v191q0 75 -41.5 111t-128.5 36t-154.5 -29.5t-119.5 -91.5l-23 72q0 2 -1 7q-3 12 -3 18q0 48 93.5 89.5t219.5 41.5q101 0 164.5 -33.5t96.5 -102.5q49 67 119 101.5t157 34.5q134 0 223.5 -94.5t116.5 -266.5l-584 -211 q11 -159 89.5 -254.5t197.5 -95.5q73 0 135.5 36t112.5 107l67 -79q-56 -85 -140 -130t-185 -45q-109 0 -195 52t-135 147q-59 -97 -135.5 -145.5t-171.5 -48.5q-121 0 -192.5 67t-71.5 180zM236 242q0 -71 45.5 -114.5t119.5 -43.5q92 0 147.5 52t55.5 138v187 q-177 -6 -272.5 -63t-95.5 -156zM739 537l441 157q-22 100 -71.5 153.5t-121.5 53.5q-115 0 -181.5 -95.5t-66.5 -262.5v-6z" />
<glyph unicode="&#xe7;" horiz-adv-x="858" d="M84 498q0 233 120.5 372.5t319.5 139.5q107 0 191 -42.5t84 -80.5q0 -8 -3.5 -17.5t-11.5 -25.5l-36 -70q-41 63 -104.5 96t-143.5 33q-131 0 -207 -110t-76 -304q0 -191 83.5 -300t227.5 -109q71 0 133 32t121 99v-117q0 -47 -81.5 -83t-198.5 -36q-186 0 -302 144.5 t-116 378.5zM256 -348q73 -17 127 -25t96 -8q73 0 110.5 25.5t37.5 74.5q0 54 -38.5 79.5t-117.5 25.5q-21 0 -32 -0.5t-21 -1.5v178h59v-113h23q102 0 154 -41.5t52 -121.5q0 -86 -57.5 -131.5t-165.5 -45.5q-49 0 -105.5 9t-121.5 26v70z" />
<glyph unicode="&#xe8;" horiz-adv-x="887" d="M84 522q0 211 110 349.5t273 138.5q134 0 223.5 -96.5t116.5 -270.5l-586 -209q11 -159 90 -254.5t199 -95.5q73 0 135.5 36t112.5 107l67 -77q-57 -85 -140.5 -130t-184.5 -45q-190 0 -303 148.5t-113 398.5zM217 530l440 160q-22 100 -71.5 152.5t-120.5 52.5 q-115 0 -181.5 -96t-66.5 -262v-7zM254 1470h133l215 -350h-80z" />
<glyph unicode="&#xe9;" horiz-adv-x="887" d="M84 522q0 211 110 349.5t273 138.5q134 0 223.5 -96.5t116.5 -270.5l-586 -209q11 -159 90 -254.5t199 -95.5q73 0 135.5 36t112.5 107l67 -77q-57 -85 -140.5 -130t-184.5 -45q-190 0 -303 148.5t-113 398.5zM217 530l440 160q-22 100 -71.5 152.5t-120.5 52.5 q-115 0 -181.5 -96t-66.5 -262v-7zM360 1120l215 350h133l-268 -350h-80z" />
<glyph unicode="&#xea;" horiz-adv-x="887" d="M84 522q0 211 110 349.5t273 138.5q134 0 223.5 -96.5t116.5 -270.5l-586 -209q11 -159 90 -254.5t199 -95.5q73 0 135.5 36t112.5 107l67 -77q-57 -85 -140.5 -130t-184.5 -45q-190 0 -303 148.5t-113 398.5zM207 1120l208 350h132l206 -350h-79l-193 277l-193 -277h-81 zM217 530l440 160q-22 100 -71.5 152.5t-120.5 52.5q-115 0 -181.5 -96t-66.5 -262v-7z" />
<glyph unicode="&#xeb;" horiz-adv-x="887" d="M84 522q0 211 110 349.5t273 138.5q134 0 223.5 -96.5t116.5 -270.5l-586 -209q11 -159 90 -254.5t199 -95.5q73 0 135.5 36t112.5 107l67 -77q-57 -85 -140.5 -130t-184.5 -45q-190 0 -303 148.5t-113 398.5zM217 530l440 160q-22 100 -71.5 152.5t-120.5 52.5 q-115 0 -181.5 -96t-66.5 -262v-7zM233 1276q0 32 25 58t57 26q35 0 58.5 -24t23.5 -60q0 -33 -24.5 -57.5t-57.5 -24.5q-31 0 -56.5 25.5t-25.5 56.5zM565 1276q0 32 25 57t57 25q35 0 58.5 -23.5t23.5 -58.5q0 -33 -24.5 -57.5t-57.5 -24.5q-31 0 -56.5 25.5t-25.5 56.5z " />
<glyph unicode="&#xec;" horiz-adv-x="473" d="M19 1470h133l215 -350h-80zM145 938l158 72v-783q0 -85 6 -137.5t19 -89.5h-181q13 36 18 84.5t5 142.5v535q0 74 -5.5 111t-19.5 65z" />
<glyph unicode="&#xed;" horiz-adv-x="473" d="M125 1120l215 350h133l-268 -350h-80zM145 938l158 72v-783q0 -85 6 -137.5t19 -89.5h-181q13 36 18 84.5t5 142.5v535q0 74 -5.5 111t-19.5 65z" />
<glyph unicode="&#xee;" horiz-adv-x="473" d="M-28 1120l208 350h132l206 -350h-79l-193 277l-193 -277h-81zM145 938l158 72v-783q0 -85 6 -137.5t19 -89.5h-181q13 36 18 84.5t5 142.5v535q0 74 -5.5 111t-19.5 65z" />
<glyph unicode="&#xef;" horiz-adv-x="473" d="M-2 1276q0 32 25 58t57 26q35 0 58.5 -24t23.5 -60q0 -33 -24.5 -57.5t-57.5 -24.5q-31 0 -56.5 25.5t-25.5 56.5zM145 938l158 72v-783q0 -85 6 -137.5t19 -89.5h-181q13 36 18 84.5t5 142.5v535q0 74 -5.5 111t-19.5 65zM330 1276q0 32 25 57t57 25q35 0 58.5 -23.5 t23.5 -58.5q0 -33 -24.5 -57.5t-57.5 -24.5q-31 0 -56.5 25.5t-25.5 56.5z" />
<glyph unicode="&#xf0;" horiz-adv-x="1042" d="M86 494q0 238 113.5 377t306.5 139q76 0 141.5 -24.5t126.5 -74.5q-36 92 -79 168t-93 138l-285 -109l-32 76l266 104q-36 45 -75.5 85.5t-84.5 78.5l82 55q61 -54 180 -181l2 -3l254 100l29 -75l-231 -93q127 -170 189 -349t62 -376q0 -267 -113.5 -411t-324.5 -144 q-204 0 -319 138t-115 381zM217 494q0 -197 80.5 -305.5t224.5 -108.5q143 0 223 109.5t80 304.5q0 194 -80 302.5t-223 108.5q-145 0 -225 -108t-80 -303z" />
<glyph unicode="&#xf1;" horiz-adv-x="1071" d="M145 938l146 72l8 -107q68 53 151 80t177 27q138 0 210 -62t72 -182v-539q0 -85 6 -137.5t19 -89.5h-176q13 39 18.5 91t5.5 136v488q0 101 -39.5 143.5t-130.5 42.5q-88 0 -168 -31t-145 -90v-553q0 -95 5 -143.5t18 -83.5h-175q13 36 18 84.5t5 142.5v535 q0 74 -5.5 111t-19.5 65zM270 1186q23 85 68.5 127.5t114.5 42.5q15 0 32 -2.5t38 -8.5l85 -28q13 -4 26.5 -6t29.5 -2q32 0 57 17t45 52h72q-27 -86 -72 -129t-111 -43q-17 0 -35 3t-38 10l-88 26q-15 4 -28 6t-28 2q-28 0 -53.5 -17.5t-42.5 -49.5h-72z" />
<glyph unicode="&#xf2;" horiz-adv-x="1042" d="M86 494q0 243 115 379.5t319 136.5q205 0 321.5 -137.5t116.5 -378.5q0 -243 -116.5 -381t-321.5 -138q-204 0 -319 138t-115 381zM217 494q0 -197 80.5 -305.5t224.5 -108.5q143 0 223 109.5t80 304.5q0 194 -80 302.5t-223 108.5q-145 0 -225 -108t-80 -303zM295 1470 h133l215 -350h-80z" />
<glyph unicode="&#xf3;" horiz-adv-x="1042" d="M86 494q0 243 115 379.5t319 136.5q205 0 321.5 -137.5t116.5 -378.5q0 -243 -116.5 -381t-321.5 -138q-204 0 -319 138t-115 381zM217 494q0 -197 80.5 -305.5t224.5 -108.5q143 0 223 109.5t80 304.5q0 194 -80 302.5t-223 108.5q-145 0 -225 -108t-80 -303zM401 1120 l215 350h133l-268 -350h-80z" />
<glyph unicode="&#xf4;" horiz-adv-x="1042" d="M86 494q0 243 115 379.5t319 136.5q205 0 321.5 -137.5t116.5 -378.5q0 -243 -116.5 -381t-321.5 -138q-204 0 -319 138t-115 381zM217 494q0 -197 80.5 -305.5t224.5 -108.5q143 0 223 109.5t80 304.5q0 194 -80 302.5t-223 108.5q-145 0 -225 -108t-80 -303zM248 1120 l208 350h132l206 -350h-79l-193 277l-193 -277h-81z" />
<glyph unicode="&#xf5;" horiz-adv-x="1042" d="M86 494q0 243 115 379.5t319 136.5q205 0 321.5 -137.5t116.5 -378.5q0 -243 -116.5 -381t-321.5 -138q-204 0 -319 138t-115 381zM217 494q0 -197 80.5 -305.5t224.5 -108.5q143 0 223 109.5t80 304.5q0 194 -80 302.5t-223 108.5q-145 0 -225 -108t-80 -303zM237 1186 q23 85 68.5 127.5t114.5 42.5q15 0 32 -2.5t38 -8.5l85 -28q13 -4 26.5 -6t29.5 -2q32 0 57 17t45 52h72q-27 -86 -72 -129t-111 -43q-17 0 -35 3t-38 10l-88 26q-15 4 -28 6t-28 2q-28 0 -53.5 -17.5t-42.5 -49.5h-72z" />
<glyph unicode="&#xf6;" horiz-adv-x="1042" d="M86 494q0 243 115 379.5t319 136.5q205 0 321.5 -137.5t116.5 -378.5q0 -243 -116.5 -381t-321.5 -138q-204 0 -319 138t-115 381zM217 494q0 -197 80.5 -305.5t224.5 -108.5q143 0 223 109.5t80 304.5q0 194 -80 302.5t-223 108.5q-145 0 -225 -108t-80 -303zM274 1276 q0 32 25 58t57 26q35 0 58.5 -24t23.5 -60q0 -33 -24.5 -57.5t-57.5 -24.5q-31 0 -56.5 25.5t-25.5 56.5zM606 1276q0 32 25 57t57 25q35 0 58.5 -23.5t23.5 -58.5q0 -33 -24.5 -57.5t-57.5 -24.5q-31 0 -56.5 25.5t-25.5 56.5z" />
<glyph unicode="&#xf7;" horiz-adv-x="1706" d="M254 569v82h1198v-82h-1198zM756 264q0 41 29 71t69 30q41 0 69.5 -29.5t28.5 -71.5q0 -40 -28.5 -69t-69.5 -29t-69.5 28.5t-28.5 69.5zM756 956q0 41 28.5 70t69.5 29t69.5 -28.5t28.5 -70.5q0 -40 -28.5 -70t-69.5 -30t-69.5 29.5t-28.5 70.5z" />
<glyph unicode="&#xf8;" horiz-adv-x="1042" d="M45 -23l127 166q-41 66 -63.5 158t-22.5 193q0 243 115 379.5t319 136.5q79 0 139.5 -18.5t114.5 -57.5l109 143l80 -65l-113 -152q54 -71 81 -163t27 -203q0 -243 -116.5 -381t-321.5 -138q-84 0 -152 23t-122 70l-123 -160zM217 473q0 -65 9.5 -117.5t29.5 -101.5 l449 588q-39 32 -84 47.5t-99 15.5q-148 0 -226.5 -111t-78.5 -321zM315 160q34 -37 89.5 -58.5t117.5 -21.5q145 0 225 112t80 316q0 83 -14 141.5t-45 102.5z" />
<glyph unicode="&#xf9;" horiz-adv-x="1071" d="M137 938l152 72v-740q0 -102 40 -143t136 -41q83 0 163 31.5t144 89.5v553q0 92 -5 140.5t-17 84.5h174q-12 -35 -17.5 -83t-5.5 -142v-578q0 -36 5.5 -72t17.5 -73l-136 -62l-14 103q-73 -51 -155.5 -77t-174.5 -26q-138 0 -210 63t-72 183v576q0 30 -6.5 66t-18.5 75z M303 1470h133l215 -350h-80z" />
<glyph unicode="&#xfa;" horiz-adv-x="1071" d="M137 938l152 72v-740q0 -102 40 -143t136 -41q83 0 163 31.5t144 89.5v553q0 92 -5 140.5t-17 84.5h174q-12 -35 -17.5 -83t-5.5 -142v-578q0 -36 5.5 -72t17.5 -73l-136 -62l-14 103q-73 -51 -155.5 -77t-174.5 -26q-138 0 -210 63t-72 183v576q0 30 -6.5 66t-18.5 75z M409 1120l215 350h133l-268 -350h-80z" />
<glyph unicode="&#xfb;" horiz-adv-x="1071" d="M137 938l152 72v-740q0 -102 40 -143t136 -41q83 0 163 31.5t144 89.5v553q0 92 -5 140.5t-17 84.5h174q-12 -35 -17.5 -83t-5.5 -142v-578q0 -36 5.5 -72t17.5 -73l-136 -62l-14 103q-73 -51 -155.5 -77t-174.5 -26q-138 0 -210 63t-72 183v576q0 30 -6.5 66t-18.5 75z M256 1120l208 350h132l206 -350h-79l-193 277l-193 -277h-81z" />
<glyph unicode="&#xfc;" horiz-adv-x="1071" d="M137 938l152 72v-740q0 -102 40 -143t136 -41q83 0 163 31.5t144 89.5v553q0 92 -5 140.5t-17 84.5h174q-12 -35 -17.5 -83t-5.5 -142v-578q0 -36 5.5 -72t17.5 -73l-136 -62l-14 103q-73 -51 -155.5 -77t-174.5 -26q-138 0 -210 63t-72 183v576q0 30 -6.5 66t-18.5 75z M282 1276q0 32 25 58t57 26q35 0 58.5 -24t23.5 -60q0 -33 -24.5 -57.5t-57.5 -24.5q-31 0 -56.5 25.5t-25.5 56.5zM614 1276q0 32 25 57t57 25q35 0 58.5 -23.5t23.5 -58.5q0 -33 -24.5 -57.5t-57.5 -24.5q-31 0 -56.5 25.5t-25.5 56.5z" />
<glyph unicode="&#xfd;" horiz-adv-x="938" d="M12 985h192q3 -31 12 -68.5t26 -78.5l241 -617q126 229 194 417t83 347h139q-27 -175 -122 -403t-355 -707q-16 -30 -43 -80q-98 -184 -164 -184h-123q66 66 150 194t182 312l-287 655q-28 64 -58.5 116t-66.5 97zM348 1120l215 350h133l-268 -350h-80z" />
<glyph unicode="&#xfe;" d="M131 1440l158 71v-596q52 48 115 71.5t139 23.5q179 0 287 -140t108 -376q0 -235 -115.5 -377t-304.5 -142q-67 0 -125 19.5t-104 56.5v-213q0 -86 5.5 -137.5t18.5 -89.5h-176q10 29 14.5 69.5t4.5 112.5v45v1446q0 50 -6.5 89t-18.5 67zM289 184q40 -48 95.5 -73 t121.5 -25q140 0 220.5 108.5t80.5 299.5q0 190 -75 297.5t-208 107.5q-68 0 -132 -32.5t-103 -88.5v-594z" />
<glyph unicode="&#xff;" horiz-adv-x="938" d="M12 985h192q3 -31 12 -68.5t26 -78.5l241 -617q126 229 194 417t83 347h139q-27 -175 -122 -403t-355 -707q-16 -30 -43 -80q-98 -184 -164 -184h-123q66 66 150 194t182 312l-287 655q-28 64 -58.5 116t-66.5 97zM221 1276q0 32 25 58t57 26q35 0 58.5 -24t23.5 -60 q0 -33 -24.5 -57.5t-57.5 -24.5q-31 0 -56.5 25.5t-25.5 56.5zM553 1276q0 32 25 57t57 25q35 0 58.5 -23.5t23.5 -58.5q0 -33 -24.5 -57.5t-57.5 -24.5q-31 0 -56.5 25.5t-25.5 56.5z" />
<glyph unicode="&#x152;" horiz-adv-x="1688" d="M94 707q0 342 172 535.5t477 193.5q72 0 129.5 -5.5t108.5 -17.5h440q85 0 107.5 -8t23.5 -28l7 -93q-20 13 -50.5 19t-109.5 6h-279v-510h281q16 0 34 4t42 12v-137q-24 8 -42 12t-34 4h-281v-594h348q46 0 82 8.5t74 26.5l-41 -117q-5 -14 -18 -20t-45 -6 q-27 0 -166.5 6t-251.5 6q-31 0 -96 -3q-17 -1 -25 -1q-66 -12 -124.5 -18.5t-113.5 -6.5q-305 0 -477 194.5t-172 537.5zM231 707q0 -293 135 -455t377 -162q71 0 130.5 12t109.5 35v1137q-50 25 -108.5 37t-131.5 12q-242 0 -377 -162t-135 -454z" />
<glyph unicode="&#x153;" horiz-adv-x="1622" d="M86 494q0 243 115 379.5t319 136.5q125 0 216 -50t147 -149q56 97 137 148t180 51q135 0 224 -95t116 -268l-584 -211q11 -161 90.5 -258.5t196.5 -97.5q71 0 133.5 37.5t114.5 111.5l68 -79q-57 -85 -141 -130t-185 -45q-109 0 -194.5 53t-149.5 160q-54 -105 -147 -159 t-222 -54q-204 0 -319 138t-115 381zM217 494q0 -196 80.5 -305t224.5 -109q143 0 223 109.5t80 304.5q0 194 -80 302.5t-223 108.5q-145 0 -225 -108t-80 -303zM950 537l443 157q-21 100 -72 153.5t-123 53.5q-115 0 -181.5 -95.5t-66.5 -262.5v-6z" />
<glyph unicode="&#x178;" horiz-adv-x="915" d="M-2 1413h207v-6q0 -37 14 -87t43 -114l232 -510l237 516q26 58 37.5 103.5t11.5 87.5v10h193q-34 -41 -115 -214q-18 -41 -29 -62l-419 -899q-56 -120 -85.5 -170.5t-50.5 -61.5q-5 -3 -14.5 -4.5t-32.5 -1.5h-59h-88q55 37 97 85t71 108l174 354l-303 649q-4 8 -12 26 q-63 138 -109 191zM211 1702q0 32 25 58t57 26q35 0 58.5 -24t23.5 -60q0 -33 -24.5 -57.5t-57.5 -24.5q-31 0 -56.5 25.5t-25.5 56.5zM543 1702q0 32 25 57t57 25q35 0 58.5 -23.5t23.5 -58.5q0 -33 -24.5 -57.5t-57.5 -24.5q-31 0 -56.5 25.5t-25.5 56.5z" />
<glyph unicode="&#x2c6;" d="M238 1120l208 350h132l206 -350h-79l-193 277l-193 -277h-81z" />
<glyph unicode="&#x2dc;" d="M227 1186q23 85 68.5 127.5t114.5 42.5q15 0 32 -2.5t38 -8.5l85 -28q13 -4 26.5 -6t29.5 -2q32 0 57 17t45 52h72q-27 -86 -72 -129t-111 -43q-17 0 -35 3t-38 10l-88 26q-15 4 -28 6t-28 2q-28 0 -53.5 -17.5t-42.5 -49.5h-72z" />
<glyph unicode="&#x2000;" horiz-adv-x="973" />
<glyph unicode="&#x2001;" horiz-adv-x="1946" />
<glyph unicode="&#x2002;" horiz-adv-x="973" />
<glyph unicode="&#x2003;" horiz-adv-x="1946" />
<glyph unicode="&#x2004;" horiz-adv-x="648" />
<glyph unicode="&#x2005;" horiz-adv-x="486" />
<glyph unicode="&#x2006;" horiz-adv-x="324" />
<glyph unicode="&#x2007;" horiz-adv-x="324" />
<glyph unicode="&#x2008;" horiz-adv-x="243" />
<glyph unicode="&#x2009;" horiz-adv-x="389" />
<glyph unicode="&#x200a;" horiz-adv-x="108" />
<glyph unicode="&#x2010;" horiz-adv-x="750" d="M170 492v112h408v-112h-408z" />
<glyph unicode="&#x2011;" horiz-adv-x="750" d="M170 492v112h408v-112h-408z" />
<glyph unicode="&#x2012;" horiz-adv-x="750" d="M170 492v112h408v-112h-408z" />
<glyph unicode="&#x2013;" d="M0 492v83h1024v-83h-1024z" />
<glyph unicode="&#x2014;" horiz-adv-x="2048" d="M0 492v83h2048v-83h-2048z" />
<glyph unicode="&#x2018;" horiz-adv-x="530" d="M160 1262q0 97 60.5 161t152.5 64h8v-4q-60 -44 -90.5 -88.5t-34.5 -95.5q6 0 12 0.5t13 0.5q26 0 43.5 -19.5t17.5 -49.5q0 -45 -24.5 -70.5t-67.5 -25.5q-42 0 -66 33.5t-24 93.5z" />
<glyph unicode="&#x2019;" horiz-adv-x="530" d="M162 1087q61 45 92 90t35 96q-4 0 -9 -0.5t-14 -0.5q-29 0 -47 19t-18 50q0 44 24.5 69.5t67.5 25.5q41 0 65.5 -34t24.5 -93q0 -98 -60 -162t-151 -64h-8z" />
<glyph unicode="&#x201a;" horiz-adv-x="530" d="M141 -190q58 41 89 87t36 99q-6 -1 -12 -1.5t-14 -0.5q-28 0 -45 19.5t-17 52.5q0 41 25.5 67.5t66.5 26.5q42 0 66 -34t24 -93q0 -98 -59.5 -162t-150.5 -64h-9v3z" />
<glyph unicode="&#x201c;" horiz-adv-x="883" d="M174 1262q0 97 60 161t151 64h8l2 -4q-60 -43 -91 -88.5t-36 -95.5q6 0 12.5 0.5t14.5 0.5q26 0 43.5 -19.5t17.5 -49.5q0 -45 -24.5 -70.5t-67.5 -25.5q-41 0 -65.5 33.5t-24.5 93.5zM522 1262q0 55 22 103t62 79q30 22 60.5 32.5t64.5 10.5h10v-4q-58 -42 -89 -87.5 t-35 -96.5q5 0 11 0.5t13 0.5q27 0 44 -19.5t17 -49.5q0 -45 -23.5 -70.5t-66.5 -25.5q-41 0 -65.5 33.5t-24.5 93.5z" />
<glyph unicode="&#x201d;" horiz-adv-x="883" d="M141 1083v4q61 44 91 89t34 97q-4 0 -8.5 -0.5t-13.5 -0.5q-30 0 -48 19t-18 50q0 44 25 69.5t67 25.5t66 -34t24 -93q0 -98 -59.5 -162t-150.5 -64h-9zM487 1083v4q61 44 91 89t34 98q-3 -1 -8 -1.5t-12 -0.5q-31 0 -48.5 18.5t-17.5 50.5q0 44 24 69.5t66 25.5 t66.5 -34t24.5 -93q0 -98 -60 -162t-151 -64h-9z" />
<glyph unicode="&#x201e;" horiz-adv-x="883" d="M141 -190q58 41 89 87t36 99q-6 -1 -13 -1.5t-13 -0.5q-28 0 -45 19t-17 50q0 44 25 70.5t67 26.5t66 -34t24 -93q0 -98 -59.5 -162t-150.5 -64h-9v3zM487 -190q60 43 90.5 89t34.5 97q-6 -1 -12.5 -1.5t-11.5 -0.5q-27 0 -44.5 19t-17.5 50q0 45 24.5 71t65.5 26 q42 0 66.5 -34t24.5 -93q0 -56 -22.5 -105t-61.5 -80q-27 -20 -58 -30.5t-67 -10.5h-11v3z" />
<glyph unicode="&#x2022;" horiz-adv-x="1208" d="M307 762q0 123 87 209t210 86q122 0 208.5 -86.5t86.5 -208.5t-87.5 -209.5t-209.5 -87.5q-123 0 -209 87t-86 210z" />
<glyph unicode="&#x2026;" horiz-adv-x="2048" d="M248 70q0 37 28 64.5t66 27.5q39 0 65.5 -27t26.5 -65q0 -39 -27.5 -67t-64.5 -28t-65.5 29t-28.5 66zM930 70q0 37 28 64.5t66 27.5q39 0 65.5 -27t26.5 -65q0 -39 -27.5 -67t-64.5 -28t-65.5 29t-28.5 66zM1614 70q0 37 28 64.5t66 27.5q39 0 65.5 -27t26.5 -65 q0 -39 -27.5 -67t-64.5 -28t-65.5 29t-28.5 66z" />
<glyph unicode="&#x202f;" horiz-adv-x="389" />
<glyph unicode="&#x2039;" horiz-adv-x="498" d="M100 477q55 67 107 145t115 191h75q-14 -71 -53.5 -154t-105.5 -182q61 -80 101.5 -164.5t57.5 -171.5h-75q-43 100 -97.5 182.5t-124.5 153.5z" />
<glyph unicode="&#x203a;" horiz-adv-x="498" d="M100 141q17 85 57 169.5t103 166.5q-68 101 -107.5 183.5t-52.5 152.5h76q63 -113 114.5 -191t106.5 -145q-71 -71 -126 -154t-97 -182h-74z" />
<glyph unicode="&#x205f;" horiz-adv-x="486" />
<glyph unicode="&#x20ac;" horiz-adv-x="1063" d="M0 487l25 80h118q-1 15 -1.5 32t-0.5 52q0 45 1 66.5t3 40.5h-145l25 80h133q41 229 181.5 359t344.5 130q82 0 164.5 -16.5t132.5 -42.5q17 -10 22 -15.5t5 -13.5q0 -3 -1 -7t-4 -12l-32 -102q-39 44 -117 70t-170 26q-147 0 -250.5 -99.5t-138.5 -276.5h586l-25 -80 h-573q-3 -18 -3.5 -39t-0.5 -66q0 -17 0.5 -36t3.5 -50h516l-25 -80h-483q32 -195 132.5 -296t260.5 -101q121 0 199 35.5t127 114.5v-121q0 -15 -1 -21t-3 -11q-3 -8 -9.5 -15.5t-29.5 -26.5q-45 -34 -116.5 -52t-166.5 -18q-220 0 -356.5 132t-173.5 380h-154z" />
<glyph unicode="&#x2122;" horiz-adv-x="1706" d="M274 1403v51h420v-51h-174v-479h-67v479h-179zM825 924v530h101l174 -440l162 440h102v-530h-59v479l-181 -479h-49l-190 479v-479h-60z" />
<glyph unicode="&#xe000;" horiz-adv-x="985" d="M0 0v985h985v-985h-985z" />
</font>
</defs>
</svg>
